Воображариум / Imaginaerum (Стобе Харью / Stobe Harju) [2012, Финляндия, Канада, мюзикл, фэнтези, драма, HDRip]

Ответить на тему
 

Bekоff ®

Стаж: 6 лет 7 месяцев

Сообщений: 148

Симпатии: 8

Воображариум
Imaginaerum
- Страна: Финляндия, Канада
Жанр: мюзикл, фэнтези, драма
Год выпуска: 2012
Продолжительность: 01:25:44-Перевод: Одноголосый закадровый [Andi] по сабам Midnight)sky
Субтитры: нет
Режиссер: Стобе Харью / Stobe Harju
В ролях: Марианн Фарли, Куинн Лорд, Фрэнсис З. МакКарти, Илка Вилли, Джоэнна Нойес, Кеянна Филдинг, Стефани Демерс, Рон Лиа, Хелен Робитейлл, Туомас Холопайнен, Анетт Ользон, Юкка Невалайнен-Описание: Кто из нас в детстве не мечтал попасть в волшебную страну? В страну, где все возможно. Где исполняются самые несбыточные мечты, встречаются необыкновенные существа и происходит самое настоящее Волшебство. Теперь ваши мечты могут осуществиться! Не важно сколько вам лет. Не важно верите ли вы в говорящих снеговиков и в то, что люди могут летать. Просто приоткройте эту дверь и перед вами окажется Воображариум, где все возможно.-

-

Доп. Информация

Сценарий: Стобе Харью / Stobe Harju, Микко Роталати / Mikko Rautalahti, Ричард Джексон / Richard Jackson, Туомас Холопайнен / Tuomas Holopainen
Продюсер: Нил Данн / Neil Dunn, Юкка Хелле / Jukka Helle, Андре Руле / André Rouleau, Маркус Селин / Markus Selin, Валери д’Отей / Valérie d'Auteuil
Оператор: Бенуа Больё / Benoit Beaulieu
Композитор: Петри Аланко / Petri Alanko, Nightwish / Nightwish
Бюджет: $4 275 000
Мировая премьера: 10 ноября 2012
-Качество: HDRip (Исходник BDRip 720p)
Контейнер: AVI
Видео: XviD, 720x304 (2.35:1), 1818 kbps, 23,976 fps, 0,347 bpp
Аудио: AC3 / 5.1 / 48 kHz / 448 kbps / 16 bit-

Media Info

General
Complete name : Voobrazharium.2012.L1_HDRip.1400.avi
Format : AVI
Format/Info : Audio Video Interleave
File size : 1.36 GiB
Duration : 1h 25mn
Overall bit rate : 2 276 Kbps
Writing application : VirtualDubMod 1.5.10.2 (build 2540/release)
Writing library : VirtualDubMod build 2540/release
Video
ID : 0
Format : MPEG-4 Visual
Format profile : Advanced [email protected]
Format settings, BVOP : 2
Format settings, QPel : No
Format settings, GMC : No warppoints
Format settings, Matrix : Custom
Codec ID : XVID
Codec ID/Hint : XviD
Duration : 1h 25mn
Bit rate : 1 819 Kbps
Width : 720 pixels
Height : 304 pixels
Display aspect ratio : 2.35:1
Frame rate : 23.976 fps
Color space : YUV
Chroma subsampling : 4:2:0
Bit depth : 8 bits
Scan type : Progressive
Compression mode : Lossy
Bits/(Pixel*Frame) : 0.347
Stream size : 1.09 GiB (80%)
Writing library : XviD 1.2.1 (UTC 2008-12-04)
Audio
ID : 1
Format : AC-3
Format/Info : Audio Coding 3
Mode extension : CM (complete main)
Codec ID : 2000
Duration : 1h 25mn
Bit rate mode : Constant
Bit rate : 448 Kbps
Channel(s) : 6 channels
Channel positions : Front: L C R, Side: L R, LFE
Sampling rate : 48.0 KHz
Bit depth : 16 bits
Compression mode : Lossy
Stream size : 275 MiB (20%)
Alignment : Split accross interleaves
Interleave, duration : 42 ms (1.00 video frame)
Interleave, preload duration : 500 ms

Скриншот с названием фильма

Скриншоты



Последний раз редактировалось: Bekоff (2013-05-15 15:38), всего редактировалось 3 раз(а)

Создавать темы 15-Май-2013 00:46

[Профиль]  [ЛС] 

666luckyman13

Стаж: 5 лет 8 месяцев

Сообщений: 24

Ну когда можно будет скачать?

Создавать темы 15-Май-2013 01:34

[Профиль]  [ЛС] 

рыжий

Стаж: 7 лет 4 месяца

Сообщений: 169

Симпатии: 130

an4ik, лицензия вряд ли будет. да и вообще - это больше мьюзикл, смотреть лучше без перевода, максимум с субтитрами

Создавать темы 15-Май-2013 10:40

[Профиль]  [ЛС] 

Bekоff ®

Стаж: 6 лет 7 месяцев

Сообщений: 148

Симпатии: 8

лицензия когда будет ?
Как только, так сразу..
В фильме добрая часть монологов, так что перевод не помешает народу.

Создавать темы 15-Май-2013 11:33

[Профиль]  [ЛС] 

Davrick

Стаж: 4 года 6 месяцев

Сообщений: 37

ну как фильм?

Создавать темы 15-Май-2013 16:09

[Профиль]  [ЛС] 

Bekоff ®

Стаж: 6 лет 7 месяцев

Сообщений: 148

Симпатии: 8

ну как фильм?
На любителя

Создавать темы 16-Май-2013 05:59

[Профиль]  [ЛС] 
Показать сообщения:    
Ответить на тему

Текущее время: 22-Сен 09:39

Часовой пояс: UTC + 5



Вы не можете начинать темы
Вы не можете отвечать на сообщения
Вы не можете редактировать свои сообщения
Вы не можете удалять свои сообщения
Вы не можете голосовать в опросах
Вы не можете прикреплять файлы к сообщениям
Вы не можете скачивать файлы