Тепло наших тел / Warm Bodies (Джонатан Левин) [2013 г., Ужасы, мелодрама, комедия, WEB-DLRip]

Страницы :  1, 2, 3, 4  След.

Ответить на тему
 

Гость

Стаж: 47 лет

Тепло наших тел / Warm Bodies «Он всё ещё мёртв, но сердце снова бьётся»- Год выпуска: 2013
Страна: США
Жанры: Ужасы, мелодрама, комедия
Продолжительность: 01:37:45
Перевод: Дублированный [Звук с TS]

Режиссер: Джонатан Левин

В ролях: Николас Холт, Тереза Палмер, Аналей Типтон, Джон Малкович, Дэйв Франко, Роб Кордри, Кори Хардрикт, Джастин Брэдли, Аиша Исса, Патрик Сабонгуй

Описание: Мир поражен чумой и стоит на грани вымирания. Покойники ходят по земле и норовят употребить в пищу живых, которые, оставшись в катастрофическом меньшинстве, с трудом держат оборону. Перемены начинаются, когда один зомби, чье имя при жизни начиналось на «Р», спасает девушку вместо того, чтобы ее съесть. Дружба, завязавшаяся между представителями враждующих сторон, грозит обоим самыми нехорошими последствиями. Но Р и Джули, сами того не подозревая, держат в руках простой и единственный ключ к спасению гибнущего мира.

 Трейлер

Качество: WEB-DLRip
Формат: AVI
Видео кодек: XviD
Аудио кодек: AC3
Видео: 720x304 pixels, 1879 kb/s, 23.976 fps
Аудио: MP3, 128 kb/s, 192 Kbps, 2 channels, 48.0 KHz

MI

General
Complete name : C:\Users\Administrator\Downloads\Warm.Bodies.2013.Dt.WEBDLRip.avi
Format : AVI
Format/Info : Audio Video Interleave
File size : 1.37 GiB
Duration : 1h 37mn
Overall bit rate : 2 001 Kbps
Writing application : VirtualDubMod 1.5.10.3 | www.virtualdub-fr.org || (build 2550/release)
Writing library : VirtualDubMod build 2550/release
Video
ID : 0
Format : MPEG-4 Visual
Format profile : Advanced [email protected]
Format settings, BVOP : 1
Format settings, QPel : No
Format settings, GMC : No warppoints
Format settings, Matrix : Custom
Codec ID : XVID
Codec ID/Hint : XviD
Duration : 1h 37mn
Bit rate : 1 800 Kbps
Width : 720 pixels
Height : 304 pixels
Display aspect ratio : 2.35:1
Frame rate : 23.976 fps
Color space : YUV
Chroma subsampling : 4:2:0
Bit depth : 8 bits
Scan type : Progressive
Compression mode : Lossy
Bits/(Pixel*Frame) : 0.343
Stream size : 1.23 GiB (90%)
Writing library : XviD 1.2.1 (UTC 2008-12-04)
Audio
ID : 1
Format : AC-3
Format/Info : Audio Coding 3
Mode extension : CM (complete main)
Format settings, Endianness : Big
Codec ID : 2000
Duration : 1h 37mn
Bit rate mode : Constant
Bit rate : 192 Kbps
Channel(s) : 2 channels
Channel positions : Front: L R
Sampling rate : 48.0 KHz
Bit depth : 16 bits
Compression mode : Lossy
Stream size : 134 MiB (10%)
Alignment : Split accross interleaves
Interleave, duration : 42 ms (1.00 video frame)
Interleave, preload duration : 500 ms

Скриншоты



Последний раз редактировалось: (2013-05-15 17:28), всего редактировалось 5 раз(а)

Создавать темы 15-Май-2013 04:16

[Профиль]  [ЛС] 

Anvar29

Стаж: 7 лет 3 месяца

Сообщений: 94

Симпатии: 5

Ну проверьте по быстрее.

Создавать темы 15-Май-2013 11:14

[Профиль]  [ЛС] 

Constanta

Стаж: 4 года 10 месяцев

Сообщений: 12

это че сумерки обед???

Создавать темы 15-Май-2013 22:05

[Профиль]  [ЛС] 

Machine

Стаж: 5 лет 2 месяца

Сообщений: 209

Симпатии: 68

Never-Trance, Помогу с раздачей....

Создавать темы 15-Май-2013 23:16

[Профиль]  [ЛС] 

Гость

Стаж: 47 лет

Never-Trance, Помогу с раздачей....
спасибо

Создавать темы 16-Май-2013 02:23

[Профиль]  [ЛС] 

Shera-787

Стаж: 6 лет 5 месяцев

Сообщений: 15

второсортный фильм????

Создавать темы 16-Май-2013 08:41

[Профиль]  [ЛС] 

sharp_ssb

Стаж: 5 лет 2 месяца

Сообщений: 43

смотрел трейлер. норм фильм

Создавать темы 16-Май-2013 09:13

[Профиль]  [ЛС] 

sharp_ssb

Стаж: 5 лет 2 месяца

Сообщений: 43

добрые зомби это чтото новое

Создавать темы 16-Май-2013 09:14

[Профиль]  [ЛС] 

Гость

Стаж: 47 лет

добрые зомби это чтото новое
D

Создавать темы 16-Май-2013 12:57

[Профиль]  [ЛС] 

Еврей

Стаж: 5 лет 7 месяцев

Сообщений: 18

ТВ3 походу ну сюжет)

Создавать темы 16-Май-2013 21:28

[Профиль]  [ЛС] 

anas85

Стаж: 4 года 6 месяцев

Сообщений: 27

td нормальный такой фильмец, посмотреть разок можно

Создавать темы 17-Май-2013 17:54

[Профиль]  [ЛС] 

Jvapaev

Стаж: 4 года 9 месяцев

Сообщений: 9

скорости ребята, у меня почему то очень медленно качает

Создавать темы 17-Май-2013 22:38

[Профиль]  [ЛС] 

dilshod5254

Стаж: 6 лет 7 месяцев

Сообщений: 106

Симпатии: 14

да по ходу режиссери скучають по сумеркам) если удачный старт то и будет далнейшим новые эпизоды. ну чтож посмотрим что за зомбиленд

Создавать темы 18-Май-2013 14:37

[Профиль]  [ЛС] 

EmeraldBay

Стаж: 6 лет 10 месяцев

Сообщений: 43

скачаю только ради Джулии )

Создавать темы 18-Май-2013 17:52

[Профиль]  [ЛС] 

dknight

Стаж: 5 лет 9 месяцев

Сообщений: 28

ребят с раздачи не уходите

Создавать темы 18-Май-2013 19:01

[Профиль]  [ЛС] 
Показать сообщения:    
Ответить на тему

Текущее время: 18-Ноя 02:28

Часовой пояс: UTC + 5



Вы не можете начинать темы
Вы не можете отвечать на сообщения
Вы не можете редактировать свои сообщения
Вы не можете удалять свои сообщения
Вы не можете голосовать в опросах
Вы не можете прикреплять файлы к сообщениям
Вы не можете скачивать файлы