Студия секса / Studio Sex (Агнета Фагерстрем-Олссон / Agneta Fagerström-Olsson) [2012, Швеция, криминальная драма, триллер, HDRip]

Ответить на тему
 

Suxrob89 ®

Стаж: 7 лет

Сообщений: 933

Симпатии: 564

-Студия секса / Studio Sex- Страна: Швеция / Yellow Bird Films, Degeto Film, TV4 Nordisk Television
Жанр: криминальная драма, триллер
Год выпуска: 2012
Продолжительность: 01:29:30
Перевод: Профессиональный (многоголосый закадровый) [Baibako]
Cубтитры: нет
Оригинальная аудиодорожка: нет-Режиссер: Агнета Фагерстрем-Олссон / Agneta Fagerström-Olsson-В ролях: Малин Крепин, Бьёрн Чьелльман, Лейф Андре, Кайса Эрнст, Эрик Йоханссон, Феликс Энгстрем, Ричард Ульфзэтер, Леонард Терфельт, Андерс Албом, Йоханнес Альбен Альфвен-Описание: Анника Бенгтзон работает летним интерном в местной газете. В надежде на какой-то эксклюзивный материал, она с готовностью принимает информацию о трупе молодой девушки в общественном парке. Она была изнасилована и убита. Анника пишет хорошую статью, которая понравилась боссу. Тот разрешает продолжить расследование и ее внимание привлекает любовник жертвы, владелец секс-клуба, где работала убитая, и высокопоставленный министр, частый гость злачного места, живущий неподалеку. Она роется в алиби бюрократа и находит про него много интересного, в том числе намеки на международный шпионаж.- -Качество видео: HDRip [рип с BDRip 1080p]
Формат видео: AVI
Видео: 720 x 400, 1793 kb/s, 25 fps
Аудио: AC3, 48 kHz, 384 kb/s (6 ch)

MediaInfo

F:\Studio.Sex.2012.P.HDRip.avi
General
Complete name : F:\Studio.Sex.2012.P.HDRip.avi
Format : AVI
Format/Info : Audio Video Interleave
File size : 1.37 GiB
Duration : 1h 29mn
Overall bit rate : 2 186 Kbps
Movie name : Studio.Sex.2012.P.HDRip.IRONCLUB
Director : IRONCLUB
Genre : Crime | Drama | Thriller
Writing application : VirtualDubMod 1.5.10.3 | www.virtualdub-fr.org || (build 2550/release)
Original source form/Name : Movie
Copyright : http://ironclub.tv/
Video #0
ID : 0
Format : MPEG-4 Visual
Format profile : Advanced [email protected]
Format settings, BVOP : 1
Format settings, QPel : No
Format settings, GMC : No warppoints
Format settings, Matrix : Custom
Codec ID : XVID
Codec ID/Hint : XviD
Duration : 1h 29mn
Bit rate : 1 793 Kbps
Width : 720 pixels
Height : 400 pixels
Display aspect ratio : 16:9
Frame rate : 25.000 fps
Color space : YUV
Chroma subsampling : 4:2:0
Bit depth : 8 bits
Scan type : Progressive
Compression mode : Lossy
Bits/(Pixel*Frame) : 0.249
Stream size : 1.12 GiB (82%)
Writing library : XviD 1.2.1 (UTC 2008-12-04)
Audio #1
ID : 1
Format : AC-3
Format/Info : Audio Coding 3
Mode extension : CM (complete main)
Format settings, Endianness : Big
Codec ID : 2000
Duration : 1h 29mn
Bit rate mode : Constant
Bit rate : 384 Kbps
Channel(s) : 6 channels
Channel positions : Front: L C R, Side: L R, LFE
Sampling rate : 48.0 KHz
Bit depth : 16 bits
Compression mode : Lossy
Stream size : 246 MiB (18%)
Alignment : Split accross interleaves
Interleave, duration : 40 ms (1.00 video frame)
Interleave, preload duration : 500 ms

Скриншот c названием фильма

Скриншоты



Последний раз редактировалось: Suxrob89 (2013-05-15 17:07), всего редактировалось 1 раз

Создавать темы 15-Май-2013 15:58

[Профиль]  [ЛС] 

Старый Дядька

Стаж: 4 года 11 месяцев

Сообщений: 566

Симпатии: 400

Suxrob89.
И с чего в шапке темы написанно
Перевод: Профессиональный (многоголосый закадровый) [лицензия]
От куда это скачанно надпись такая
Перевод: Профессиональный (многоголосый, закадровый) [Baibako]
Если это [лицензия] - выложи ссылку где так написанно.

Создавать темы 15-Май-2013 17:04

[Профиль]  [ЛС] 

mp1988

Стаж: 6 лет 6 месяцев

Сообщений: 607

Симпатии: 971

valeri-mvv-101, нет Вы правы здесь перевод студии Baibako

Создавать темы 15-Май-2013 17:09

[Профиль]  [ЛС] 

Alinea67

Стаж: 4 года 10 месяцев

Сообщений: 57

Симпатии: 16

Отпишитесь как фильм?

Создавать темы 27-Май-2013 20:57

[Профиль]  [ЛС] 
Показать сообщения:    
Ответить на тему

Текущее время: 18-Авг 10:03

Часовой пояс: UTC + 5



Вы не можете начинать темы
Вы не можете отвечать на сообщения
Вы не можете редактировать свои сообщения
Вы не можете удалять свои сообщения
Вы не можете голосовать в опросах
Вы не можете прикреплять файлы к сообщениям
Вы не можете скачивать файлы