Юма / Yuma (Петр Муларук) [2012 г., Боевик, Драма, Криминал, DVDRip]

Ответить на тему
 

Nosferatu ®

Стаж: 4 года 9 месяцев

Сообщений: 79

Симпатии: 5

Юма / Yuma- -Год выпуска: 2012
Страна: Польша, Чехия
Жанр: Боевик, Драма, Криминал
Продолжительность: 01:48:16
Перевод: Любительский (одноголосый)
Режиссер: Петр Муларук
В ролях:
Якуб Гершал, Кшиштоф Сконечны, Якуб Каменьский, Томаш Кот, Катажина Фигура, Каролина Чапко, Хелена Суецкая, Войцех Червинский, Мальвина Василевская, Томаш Шухардт
Описание:
Начало 90-ых годов, городок на границе с Германией. Компания друзей во главе с Зыгой ищет способ молниеносного обогащения. С помощью оборотистой тетки Халины начинают заниматься юмом — мелкими кражами ценных товаров из немецких магазинов и перевозом контрабандой их в Польшу. С каждым днём компания всё больше завоёвывает признание и уважение среди ровесников. Но идиллия продолжается недолго. Их деятельностью начинает интересоваться как немецкая полиция, так и русская мафия во главе с Опатом.
Доп. информация:
Бюджет: €1 500 000
Рейтинг
КиноПоиск.Ru: 6.45 (88)
IMDb: 6 (320)
Качество: DVDRip
Формат: AVI
Видео кодек: XviD
Аудио кодек: MP3
Видео: Video: Xvid 640x272 25fps [Stream 00]
Аудио: Audio: MP3 48000Hz stereo 128kbps [Stream 01]

Media Info

Format : AVI
Format/Info : Audio Video Interleave
File size : 702 MiB
Duration : 1h 48mn
Overall bit rate mode : Variable
Overall bit rate : 906 Kbps
Writing application : VirtualDubMod 1.5.10.2 (build 2540/release)
Writing library : VirtualDubMod build 2540/release
Video
ID : 0
Format : MPEG-4 Visual
Format profile : Advanced [email protected]
Format settings, BVOP : 2
Format settings, QPel : No
Format settings, GMC : No warppoints
Format settings, Matrix : Default (H.263)
Muxing mode : Packed bitstream
Codec ID : XVID
Codec ID/Hint : XviD
Duration : 1h 48mn
Bit rate : 768 Kbps
Width : 640 pixels
Height : 272 pixels
Display aspect ratio : 2.35:1
Frame rate : 25.000 fps
Color space : YUV
Chroma subsampling : 4:2:0
Bit depth : 8 bits
Scan type : Progressive
Compression mode : Lossy
Bits/(Pixel*Frame) : 0.177
Stream size : 595 MiB (85%)
Writing library : XviD 64
Audio
ID : 1
Format : MPEG Audio
Format version : Version 1
Format profile : Layer 3
Mode : Joint stereo
Mode extension : MS Stereo
Codec ID : 55
Codec ID/Hint : MP3
Duration : 1h 48mn
Bit rate mode : Variable
Bit rate : 128 Kbps
Channel(s) : 2 channels
Sampling rate : 48.0 KHz
Compression mode : Lossy
Stream size : 99.1 MiB (14%)
Alignment : Split accross interleaves
Interleave, duration : 40 ms (1.00 video frame)
Interleave, preload duration : 500 ms
Writing library : LAME

Скриншоты








Приятного просмотра! az

Создавать темы 15-Май-2013 19:04

[Профиль]  [ЛС] 

Эйфория

Стаж: 5 лет 2 месяца

Сообщений: 8

О, еще один фильм с Якубом Гершалом. Отлично.

Создавать темы 21-Июл-2013 04:24

[Профиль]  [ЛС] 
Показать сообщения:    
Ответить на тему

Текущее время: 18-Дек 00:41

Часовой пояс: UTC + 5



Вы не можете начинать темы
Вы не можете отвечать на сообщения
Вы не можете редактировать свои сообщения
Вы не можете удалять свои сообщения
Вы не можете голосовать в опросах
Вы не можете прикреплять файлы к сообщениям
Вы не можете скачивать файлы