Гуманитарные науки / Liberal Arts (Джош Рэднор) [2012 г., Драма, Комедия, BDRip-AVC ]

Ответить на тему
 

Nosferatu ®

Стаж: 4 года 8 месяцев

Сообщений: 79

Симпатии: 5

Гуманитарные науки / Liberal Arts- -Год выпуска: 2012
Страна: США
Жанр: Драма, Комедия
Продолжительность: 01:37:16
Перевод: Любительский (двухголосый закадровый)
Субтитры: Английские, русские (нотабеноид)
Режиссер: Джош Рэднор
В ролях:
Джон Магаро, Джош Рэднор, Зак Эфрон, Кейт Бертон, Ричард Дженкинс, Элизабет Ризер, Элизабет Олсен, Эллисон Дженни, Али Ан, Роберт Десидерио
Описание:
Сюжет повествует о парне тридцати лет и студентке колледжа, которых объединяет взаимная любовь к книгам и музыке, но разница в возрасте мешает их отношениям.
Доп. информация:
Рейтинг
КиноПоиск.Ru: 7.31 (1787)
IMDb: 6.7 (9906)
Качество: BDRip-AVC
Формат: MKV
Видео кодек: H.264
Аудио кодек: AC3

Audio

Audio #1 Format : AC-3 Language : Russian
Audio #2 Format : AC-3 Language : English
Видео: H.264, 1080x460 (2.35:1), 23,976 fps, 2386 Кbps, 0.200 bit/pixel
Аудио#1: 48 kHz, AC3 Dolby Digital, 3/2 (L,C,R,l,r) + LFE ch, ~384.00 kbps avg | RUS
Аудио#2: 48 kHz, AC3 Dolby Digital, 3/2 (L,C,R,l,r) + LFE ch, ~448.00 kbps avg | ENG

Text

Text #1 Language : English : DD 5.1 @ 384 kbps - VICTORY FILMS
Text #2 Language : Russian : Original | DD 5.1 @ 448 kbps

Media Info

Format : Matroska
Format version : Version 4 / Version 2
File size : 2.19 GiB
Duration : 1h 37mn
Overall bit rate : 3 219 Kbps
Movie name : -=POTROKS=-
Encoded date : UTC 2013-05-01 15:08:45
Writing application : mkvmerge v5.9.0 ('On The Loose') built on Dec 15 2012 16:39:58
Writing library : libebml v1.3.0 + libmatroska v1.4.0
Video
ID : 1
Format : AVC
Format/Info : Advanced Video Codec
Format profile : [email protected]
Format settings, CABAC : Yes
Format settings, ReFrames : 9 frames
Codec ID : V_MPEG4/ISO/AVC
Duration : 1h 37mn
Bit rate : 2 386 Kbps
Width : 1 080 pixels
Height : 460 pixels
Display aspect ratio : 2.35:1
Frame rate mode : Constant
Frame rate : 23.976 fps
Color space : YUV
Chroma subsampling : 4:2:0
Bit depth : 8 bits
Scan type : Progressive
Bits/(Pixel*Frame) : 0.200
Stream size : 1.58 GiB (72%)
Title : Liberal Arts
Writing library : x264 core 125 r2208 d9d2288
Encoding settings : cabac=1 / ref=9 / deblock=1:-2:-1 / analyse=0x3:0x133 / me=umh / subme=11 / psy=1 / psy_rd=1.05:0.01 / mixed_ref=1 / me_range=32 / chroma_me=1 / trellis=2 / 8x8dct=1 / cqm=0 / deadzone=21,11 / fast_pskip=0 / chroma_qp_offset=-3 / threads=9 / lookahead_threads=1 / sliced_threads=0 / nr=0 / decimate=1 / interlaced=0 / bluray_compat=0 / constrained_intra=0 / bframes=10 / b_pyramid=2 / b_adapt=2 / b_bias=0 / direct=3 / weightb=1 / open_gop=0 / weightp=2 / keyint=240 / keyint_min=23 / scenecut=40 / intra_refresh=0 / rc_lookahead=150 / rc=2pass / mbtree=1 / bitrate=2386 / ratetol=1.0 / qcomp=0.70 / qpmin=0 / qpmax=69 / qpstep=4 / cplxblur=20.0 / qblur=0.5 / vbv_maxrate=20000 / vbv_bufsize=20000 / nal_hrd=none / ip_ratio=1.35 / aq=1:0.80
Language : English
Default : Yes
Forced : No
Audio #1
ID : 2
Format : AC-3
Format/Info : Audio Coding 3
Mode extension : CM (complete main)
Format settings, Endianness : Big
Codec ID : A_AC3
Duration : 1h 37mn
Bit rate mode : Constant
Bit rate : 384 Kbps
Channel(s) : 6 channels
Channel positions : Front: L C R, Side: L R, LFE
Sampling rate : 48.0 KHz
Bit depth : 16 bits
Compression mode : Lossy
Stream size : 267 MiB (12%)
Title : DD 5.1 @ 384 kbps - VICTORY FILMS
Language : Russian
Default : Yes
Forced : Yes
Audio #2
ID : 3
Format : AC-3
Format/Info : Audio Coding 3
Mode extension : CM (complete main)
Format settings, Endianness : Big
Codec ID : A_AC3
Duration : 1h 37mn
Bit rate mode : Constant
Bit rate : 448 Kbps
Channel(s) : 6 channels
Channel positions : Front: L C R, Side: L R, LFE
Sampling rate : 48.0 KHz
Bit depth : 16 bits
Compression mode : Lossy
Stream size : 312 MiB (14%)
Title : Original | DD 5.1 @ 448 kbps
Language : English
Default : No
Forced : No
Text #1
ID : 4
Format : UTF-8
Codec ID : S_TEXT/UTF8
Codec ID/Info : UTF-8 Plain Text
Language : English
Default : No
Forced : No
Text #2
ID : 5
Format : UTF-8
Codec ID : S_TEXT/UTF8
Codec ID/Info : UTF-8 Plain Text
Language : Russian
Default : No
Forced : No

Скриншоты











Приятного просмотра! az


Последний раз редактировалось: Nosferatu (2013-05-16 10:45), всего редактировалось 1 раз

Создавать темы 15-Май-2013 19:24

[Профиль]  [ЛС] 

mp1988

Стаж: 6 лет 9 месяцев

Сообщений: 607

Симпатии: 971

Nosferatu, Перевод: Любительский (двухголосый закадровый)
Субтитры: Английские, русские
Качество: BDRip-AVC
Видео кодек H.264
здесь 2 дорожки.
Когда создаёте раздачи Вы никогда не пишете битрейт аудио и видео. Это же ваша не первая раздача, пора уже грамотно оформлять релизы.

Создавать темы 16-Май-2013 10:42

[Профиль]  [ЛС] 

Топик был перенесен из форума Фильмы за 2012 в форум HD-AVC

mp1988

Создавать темы 16-Май-2013 10:47

 
Показать сообщения:    
Ответить на тему

Текущее время: 20-Ноя 05:30

Часовой пояс: UTC + 5



Вы не можете начинать темы
Вы не можете отвечать на сообщения
Вы не можете редактировать свои сообщения
Вы не можете удалять свои сообщения
Вы не можете голосовать в опросах
Вы не можете прикреплять файлы к сообщениям
Вы не можете скачивать файлы