Лагерь группы поддержки #1 / #1 Cheerleader Camp (Марк Куод) [2010 г., Комедия]

Ответить на тему
 

Nosferatu ®

Стаж: 4 года 5 месяцев

Сообщений: 79

Симпатии: 5

Лагерь группы поддержки #1 / #1 Cheerleader Camp- -
Год выпуска: 2010
Страна: США
Жанр: Комедия
Продолжительность: 01:35:29
Перевод: Любительский (одноголосый, закадровый)
Режиссер: Марк Куод
В ролях:
Starkesha Brown Robinson, Брайан Шульц, Дайан Джей Гонзалез, Джей Гиллеспи, Мойра Мерфи, Сет Кэссел, Соня О’Хара, Хармони Блоссом, Шарлин Тилтон, Эрика Дьюк
Описание:
В лагере Группы Поддержки № 1 на лето получают работу двое парней из колледжа. Джей Гиллеспи и Сет Остин и есть те самые два парня, которые этим летом устроились на работу в лагере черлидинга. Все команды в этом году очень взволнованы перед грядущими соревнованиями и жаждут одержать победу над своими противниками. Но есть одна маленькая проблема: все эти три команды одинакого талантливы и очень пластичны, что делает одержание победы над своими конкурентами ещё тяжелее. И когда наступает финальная схватка между командами, то самые изощрённые черлидерши задействуют в бой со своим противником все возможные методы борьбы, которые наперекор рушат все установленные правила и порядки в этом лагере! И чтобы одолеть своих соперников в этом не лёгком соревновании, каждой из команд в этом Лагере придётся пройти через немало дерзких испытаний.
Качество: BDRip
Формат: AVI
Видео: Xvid 624x352 (16:9) 886 Kbps 23.976fps [Stream 00]
Аудио: MP3 48000Hz stereo 128kbps [Stream 01]

Media Info

Format : AVI
Format/Info : Audio Video Interleave
File size : 699 MiB
Duration : 1h 35mn
Overall bit rate : 1 023 Kbps
Writing application : VirtualDubMod 1.5.10.2 (build 2540/release)
Writing library : VirtualDubMod build 2540/release
Video
ID : 0
Format : MPEG-4 Visual
Format profile : Advanced [email protected]
Format settings, BVOP : 2
Format settings, QPel : No
Format settings, GMC : No warppoints
Format settings, Matrix : Default (H.263)
Codec ID : XVID
Codec ID/Hint : XviD
Duration : 1h 35mn
Bit rate : 886 Kbps
Width : 624 pixels
Height : 352 pixels
Display aspect ratio : 16:9
Frame rate : 23.976 fps
Color space : YUV
Chroma subsampling : 4:2:0
Bit depth : 8 bits
Scan type : Progressive
Compression mode : Lossy
Bits/(Pixel*Frame) : 0.168
Stream size : 605 MiB (87%)
Writing library : XviD 1.2.1 (UTC 2008-12-04)
Audio
ID : 1
Format : MPEG Audio
Format version : Version 1
Format profile : Layer 3
Mode : Joint stereo
Mode extension : MS Stereo
Codec ID : 55
Codec ID/Hint : MP3
Duration : 1h 35mn
Bit rate mode : Constant
Bit rate : 128 Kbps
Channel(s) : 2 channels
Sampling rate : 48.0 KHz
Compression mode : Lossy
Stream size : 87.4 MiB (13%)
Alignment : Aligned on interleaves
Interleave, duration : 42 ms (1.00 video frame)
Interleave, preload duration : 504 ms
Writing library : LAME3.98.4ЄЄЄЄЄЄЄЄЄЄ

Скриншоты










Приятного просмотра! az


Последний раз редактировалось: Nosferatu (2013-05-16 19:20), всего редактировалось 1 раз

Создавать темы 16-Май-2013 16:53

[Профиль]  [ЛС] 
Показать сообщения:    
Ответить на тему

Текущее время: 23-Авг 10:59

Часовой пояс: UTC + 5



Вы не можете начинать темы
Вы не можете отвечать на сообщения
Вы не можете редактировать свои сообщения
Вы не можете удалять свои сообщения
Вы не можете голосовать в опросах
Вы не можете прикреплять файлы к сообщениям
Вы не можете скачивать файлы