Штурмовые ведьмы (фильм) / Strike Witches Gekijouban (Такамура Кадзухиро) [Movie] [без хардсаба] [RUS(ext), JAP+SUB] [2012 г., приключения, BDRip] [720p]

Ответить на тему
 

Gaius Marius ®

Стаж: 4 года 5 месяцев

Сообщений: 9

Симпатии: 1

-Год выпуска: 2012
Страна: Япония
Жанр: приключения
Продолжительность: полнометражный фильм, 95 мин.
Перевод:
  • русские субтитры от Nachtwandler & Jenia aka Zub (полные/вспомогательные)
Озвучка:
  • двухолосая (муж./жен.) от Ray & Eladiel (Anilibria)
  • многоголосая от AniDub
    (при участии: Cuba77 & Trina_D & Nika Lenina & Shina & Tinko)
-Режиссер: Сато Дзюнъити
Студия: AIC Spirits-Описание:
Ёшика, оставшаяся без магических способностей в конце второго сезона, всё так же учится на врача. Остальные девчонки разбрелись по разным концам Европы и Азии и продолжают воевать. Внезапно Ёшике приходит нежданная награда: за прошлые боевые заслуги ей предлагают место в престижном медучилище в Гельвеции. Сопровождать её на новое место учёбы поручают свежевыпустившейся курсантке, молодой ведьме по имени Шизука Хаттори. Вокруг их путешествия к месту учёбы и крутится сюжет.
© Nachtwandler-Информационные ссылки: AniDB || World Art || MAL-Качество: BDRip
Энкод: Winter
Тип видео: без хардсаба
Формат: mkv
Видео: x264 (Hi10p), 1280x720, ~3000 Kbps, 23.976 fps
Аудио JAP: AC-3, 48000Hz, 640 Kbps, 5.1ch
Аудио RUS 1: AC-3, 48000Hz, 320 Kbps, 2ch
Аудио RUS 2: AC-3, 48000Hz, 640 Kbps, 5.1ch
-

Скриншоты





MI

General
Unique ID                      : 253656939126512665193577386484907651080 (0xBED48CA9D6C2CC908DA48E485B0C3008)
Complete name                  : C:\Games\MeineTorrent\Аниме\Strike Witches Gekijouban [BD] [720p]\[Winter] Strike Witches Gekijouban [BDrip 1280x720 x264 AC-3].mkv
Format                         : Matroska
Format version                 : Version 2
File size                      : 3.06 GiB
Duration                       : 1h 34mn
Overall bit rate               : 4 635 Kbps
Encoded date                   : UTC 2012-11-24 19:43:20
Writing application            : mkvmerge v2.9.8 ('C'est le bon') built on Aug 13 2009 12:49:06
Writing library                : libebml v0.7.7 + libmatroska v0.8.1
Video
ID                             : 1
Format                         : AVC
Format/Info                    : Advanced Video Codec
Format profile                 : High [email protected]
Format settings, CABAC         : Yes
Format settings, ReFrames      : 9 frames
Codec ID                       : V_MPEG4/ISO/AVC
Duration                       : 1h 34mn
Bit rate                       : 3 902 Kbps
Width                          : 1 280 pixels
Height                         : 720 pixels
Display aspect ratio           : 16:9
Frame rate mode                : Constant
Frame rate                     : 23.976 fps
Color space                    : YUV
Chroma subsampling             : 4:2:0
Bit depth                      : 10 bits
Scan type                      : Progressive
Bits/(Pixel*Frame)             : 0.177
Stream size                    : 2.57 GiB (84%)
Writing library                : x264 core 125 r2200 999b753
Encoding settings              : cabac=1 / ref=9 / deblock=1:-2:-2 / analyse=0x3:0x133 / me=umh / subme=9 / psy=1 / psy_rd=0.90:0.00 / mixed_ref=1 / me_range=24 / chroma_me=1 / trellis=2 / 8x8dct=1 / cqm=0 / deadzone=21,11 / fast_pskip=1 / chroma_qp_offset=-2 / threads=6 / lookahead_threads=1 / sliced_threads=0 / nr=0 / decimate=0 / interlaced=0 / bluray_compat=0 / constrained_intra=0 / bframes=8 / b_pyramid=2 / b_adapt=2 / b_bias=0 / direct=1 / weightb=1 / open_gop=0 / weightp=2 / keyint=250 / keyint_min=23 / scenecut=40 / intra_refresh=0 / rc=crf / mbtree=0 / crf=15.7 / qcomp=0.70 / qpmin=9 / qpmax=40 / qpstep=4 / ip_ratio=1.40 / pb_ratio=1.30 / aq=1:0.90
Default                        : No
Forced                         : No
Audio
ID                             : 2
Format                         : AC-3
Format/Info                    : Audio Coding 3
Mode extension                 : CM (complete main)
Format settings, Endianness    : Big
Codec ID                       : A_AC3
Duration                       : 1h 34mn
Bit rate mode                  : Constant
Bit rate                       : 640 Kbps
Channel(s)                     : 6 channels
Channel positions              : Front: L C R, Side: L R, LFE
Sampling rate                  : 48.0 KHz
Bit depth                      : 16 bits
Compression mode               : Lossy
Stream size                    : 432 MiB (14%)
Language                       : Japanese
Default                        : Yes
Forced                         : No
-

Создавать темы 16-Май-2013 18:40

[Профиль]  [ЛС] 

rikimaruxxx

Стаж: 5 лет 3 месяца

Сообщений: 254

Симпатии: 42

вам сюда http://tas-ix.net/viewforum.php?f=380

Создавать темы 16-Май-2013 18:53

[Профиль]  [ЛС] 

Топик был перенесен из форума BD, BDRip в форум Полнометражные аниме

Rambotnik

Создавать темы 16-Май-2013 19:23

 

Азиз87

Стаж: 4 года 11 месяцев

Сообщений: 752

Симпатии: 143

Создатели полнометражки по сравнению с 1-2 сезоном помоему что-то упустили , но хоть радует что будущий "биш" КП вернул свои возможности (здесь была Л2). ak

Создавать темы 16-Май-2013 21:23

[Профиль]  [ЛС] 

dualblos

Стаж: 5 лет 5 месяцев

Сообщений: 89

Симпатии: 4

А 1 сезона этого аниме есть если есть залейте заранее спасибо

Создавать темы 18-Янв-2014 20:43

[Профиль]  [ЛС] 

Профессор

Стаж: 4 года 5 месяцев

Сообщений: 63

Симпатии: 3

Круто, его манга у нас в библиотеке есть. Лоликонщинааа!!!

Создавать темы 19-Янв-2014 22:43

[Профиль]  [ЛС] 
Показать сообщения:    
Ответить на тему

Текущее время: 24-Окт 10:59

Часовой пояс: UTC + 5



Вы не можете начинать темы
Вы не можете отвечать на сообщения
Вы не можете редактировать свои сообщения
Вы не можете удалять свои сообщения
Вы не можете голосовать в опросах
Вы не можете прикреплять файлы к сообщениям
Вы не можете скачивать файлы