Жена художника / Marie Krøyer (Билле Аугуст) [2012 г., драма, биография, HDRip] (Лицензия)

Ответить на тему
 

anvar_nozim ®

Стаж: 5 лет 10 месяцев

Сообщений: 13

Симпатии: 1

Жена художника / Marie Kroyer
Год выпуска: 2012
Страна: Дания, Швеция
Жанр: драма, биография
Продолжительность: 01.42.17
Перевод: Профессиональный (Полное дублирование) (Лицензия)
Режиссер: Билле Аугуст
В ролях:
Биргитта Йорт Сёренсен
Сёрен Сэттер-Лассен
Сверрир Гуднасон
Лене Мария Кристенсен
Томми Кентер
Нанна Бюль Андресен
Вера Торпп Ларссон
Курт Дрейер
Андерс Гьеллеруп Кох
Метте Мария Аренкиэль
Описание: В 1889 году датская художница Мари Трипке вышла замуж за Педера Северина Крёйера, всемирно известного живописца. Они были одной из самых знаменитых семейных пар в стране, вызывая всеобщее восхищение. Выдающиеся люди времени — политики, аристократы, ученые, писатели, королевские особы — мечтали о том, чтобы П. С. Крёйер написал их портреты. Для них это было большой честью. И художник за свою работу мог назначить любую цену. А Мари называли самой красивой женщиной Европы. Жизнь семьи, в которой подрастала дочь Вибеке, выглядела идеальной: творчество, высокий статус, богатство. Но за внешним благополучием скрывался настоящий ад. Крёйер страдал наследственным психическим расстройством, часто впадал в депрессии. Из веселого и радостного человека он в одно мгновение мог превращаться в сумасшедшего монстра. Знакомство со шведским композитором Хуго Альвеном, которого Мари полюбила, казалось ей шагом к спасению…
Доп. информация:
КиноПоиск: 6.445 (324)
IMDb: 6.30 (357)
Качество: HDRip
Формат: AVI
Видео кодек: XviD
Аудио кодек: AC3
Видео: 720x304 (2.35:1), 24 fps, 1646 kbps avg, 0.31 bit/pixel
Аудио: 48 kHz, AC3 Dolby Digital, 6/0 (Front: L C R, Side: L R, LFE) ch, ~384 kbps [Russian]

Медиа Инфо

General
Complete name : Zhena.hudozhnika.2012.P.HDRip.IRONCLUB_Epidemz.Net.avi
Format : AVI
Format/Info : Audio Video Interleave
File size : 1.46 GiB
Duration : 1h 42mn
Overall bit rate : 2 039 Kbps
Movie name : Zhena.hudozhnika.2012.P.HDRip.IRONCLUB_Epidemz.Net
Director : IRONCLUB
Genre : Biography | Drama
Writing application : VirtualDubMod 1.5.10.2 (build 2540/release)
Original source form/Name : Movie
Copyright : http://ironclub.tv/
Video #0
ID : 0
Format : MPEG-4 Visual
Format profile : Advanced [email protected]
Format settings, BVOP : 1
Format settings, QPel : No
Format settings, GMC : No warppoints
Format settings, Matrix : Custom
Codec ID : XVID
Codec ID/Hint : XviD
Duration : 1h 42mn
Bit rate : 1 646 Kbps
Width : 720 pixels
Height : 304 pixels
Display aspect ratio : 2.35:1
Frame rate : 24.000 fps
Color space : YUV
Chroma subsampling : 4:2:0
Bit depth : 8 bits
Scan type : Progressive
Compression mode : Lossy
Bits/(Pixel*Frame) : 0.313
Stream size : 1.18 GiB (81%)
Writing library : XviD 1.2.1 (UTC 2008-12-04)
Audio #1
ID : 1
Format : AC-3
Format/Info : Audio Coding 3
Mode extension : CM (complete main)
Format settings, Endianness : Big
Codec ID : 2000
Duration : 1h 42mn
Bit rate mode : Constant
Bit rate : 384 Kbps
Channel(s) : 6 channels
Channel positions : Front: L C R, Side: L R, LFE
Sampling rate : 48.0 KHz
Bit depth : 16 bits
Compression mode : Lossy
Stream size : 281 MiB (19%)
Alignment : Split accross interleaves
Interleave, duration : 42 ms (1.00 video frame)
Interleave, preload duration : 500 ms

Скриншоты



Последний раз редактировалось: anvar_nozim (2013-05-17 10:31), всего редактировалось 1 раз

Создавать темы 17-Май-2013 09:54

[Профиль]  [ЛС] 

jaska-3d

Стаж: 5 лет 11 месяцев

Сообщений: 250

Симпатии: 25

а что делают мужык и женщина на третьем скрине ?

Создавать темы 17-Май-2013 10:05

[Профиль]  [ЛС] 

anvar_nozim ®

Стаж: 5 лет 10 месяцев

Сообщений: 13

Симпатии: 1

jaska-3d, Если честно не смотрел ещё

Создавать темы 17-Май-2013 10:18

[Профиль]  [ЛС] 

anvar_nozim ®

Стаж: 5 лет 10 месяцев

Сообщений: 13

Симпатии: 1

Может моются...

Создавать темы 17-Май-2013 10:18

[Профиль]  [ЛС] 

Тими

Стаж: 6 лет 7 месяцев

Сообщений: 94

Симпатии: 6

мощный там фан наверное at

Создавать темы 17-Май-2013 10:25

[Профиль]  [ЛС] 

mp1988

Стаж: 6 лет 9 месяцев

Сообщений: 607

Симпатии: 971

мощный там фан наверное at
да 3 скрин, твой аватар и постер фильма напоминают какую-та последовательность

Создавать темы 17-Май-2013 10:35

[Профиль]  [ЛС] 

Тими

Стаж: 6 лет 7 месяцев

Сообщений: 94

Симпатии: 6

мощный там фан наверное at
да 3 скрин, твой аватар и постер фильма напоминают какую-та последовательность
хахахахаха bj

Создавать темы 17-Май-2013 10:38

[Профиль]  [ЛС] 

cartman

Стаж: 5 лет 7 месяцев

Сообщений: 46

а что делают мужык и женщина на третьем скрине ?
По моему мужик обосрался а женшина меняет бельё ag ag ag

Создавать темы 17-Май-2013 11:03

[Профиль]  [ЛС] 

umka777

Стаж: 5 лет 9 месяцев

Сообщений: 26

вот возьмите и посмотрите фильм и сразу будет ясно че да как

Создавать темы 17-Май-2013 21:34

[Профиль]  [ЛС] 

flash008

Стаж: 5 лет 10 месяцев

Сообщений: 99

а что делают мужык и женщина на третьем скрине ?
По моему мужик обосрался а женшина меняет бельё ag ag ag
Капитан очевидность блин. Не зря наверно, фильм был двукратным обладателем "Пальмовой ветви"

Создавать темы 17-Май-2013 21:48

[Профиль]  [ЛС] 
Показать сообщения:    
Ответить на тему

Текущее время: 18-Ноя 15:22

Часовой пояс: UTC + 5



Вы не можете начинать темы
Вы не можете отвечать на сообщения
Вы не можете редактировать свои сообщения
Вы не можете удалять свои сообщения
Вы не можете голосовать в опросах
Вы не можете прикреплять файлы к сообщениям
Вы не можете скачивать файлы