Эдемский сад / The Garden of Eden (Джон Ирвин) [2008, драмаслова, DVDRip]

Ответить на тему
 

jaska-3d ®

Стаж: 5 лет 8 месяцев

Сообщений: 250

Симпатии: 25

Эдемский сад-The Garden of Eden--«Surrender your inhibitions...»-
Год выпуска: 2008
Страна: Великобритания , Испания
Жанр: драмаслова
Продолжительность: 01:36:35
Перевод: Любительский (одноголосый закадровый)[Voiz по авторским субтитрам lingua.pura]
Субтитры: Нет-Режиссер: Джон Ирвин
Сценарий: Джеймс Скотт Линвилл, Эрнест Хемингуэй
Продюсер: Тим Левинстон, Боб Махони, Тим Бэйш, ...
Оператор: Эшли Роу
Композитор: Роджер Джулия-Саторра
Художник: Тим Хатчинсон, Джонатан МакКинстри, Александра Бирн, ...
Монтаж: Джереми Гиббс-В ролях: Мена Сувари / Mena Suvari (Catherine Hill Bourne), Джек Хьюстон / Jack Huston (David Bourne), Катерина Мурино / Caterina Murino (Marita), Кармен Маура / Carmen Maura (Madame Aurol), Мэттью Модайн / Matthew Modine (David's Father), Ричард Э. Грант / Richard E. Grant (Col. Philip Boyle), Матиас Кои Леви Палсвиг / Mathias Koie Levi Palsvig (в титрах: Mathias Palsvig) (Young David), Гектор Томас / Hector Tomas (в титрах: Hector Tomas) (Patrice), Дритан Биба / Dritan Biba (Waiter), Луис Каллехо / Luis Callejo (Monsieur Jean), Альваро Ройг / Alvaro Roig (в титрах: Alvaro Roig) (Vladimir), Яэль Кеменер / Yael Quemener (в титрах: Yael Belicha) (Girl Onlooker), Мария Мигель / Maria Miguel (в титрах: Maria Miguel) (Nina), Igacio Gijon Solis (Ritz Waiter), Enrique Zaldua / (в титрах: Enrique Zoldua) (Waiter #2)-Описание: События фильма происходят в так называемую эпоху джаза в 20-х годах прошлого столетия. Эта история об американском писателе Дэвиде Борне, после войны уехавшем жить в Париж, где он знакомится и подпадает под чары соблазнительной Катрин, богатой молодой женщины, желающей получать от жизни как можно больше острых ощущений. Они как будто играют в глубоко эротический роман, который в конце концов перетекает во что-то опасное и карающее.-

Рецензии

freemen1980
Неплохая легкая ретро-мелодрама о прожигателях жизни.
Это экранизация одноименного романа Эрнеста Хемингуэя. На дворе 20-е годы — эпоха джаза. В центре сюжета молодая супружеская пара, писатель и богатая наследница, желающая получать от жизни как можно больше острых ощущений. Они как-будто играют в глубоко эротический роман, который в конце концов перетекает во что-то опасное и карающее.
Хочется отметить атмосферу ретро стилистики фильма, которая витает в воздухе, легкую музыку и немного эротики. Так же хочется отметить интернациональный актерский состав этой картины, в первую очередь молодых актеров: британца Джека Хьюстона, который является внуком маститого режиссера Джона Хьюстона и жгучую итальянку Катерину Мурино, которым подыгрывают более известные актеры Мена Сувари, Кармен Маура, Мэтью Модин и Ричард Э. Грант.
Рекомендую к просмотру.
Сборы в США: $22 083
Премьера (мир): 10 декабря 2010, ...
Рейтинг MPAA: Лицам до 17 лет обязательно присутствие взрослого-- ---Релиз группы: -Качество: DVDRip
Формат: AVI
Видео кодек: XviD
Аудио кодеk: AC3
Видео: 720x400 (16:9), 23.976 fps, XviD, 1 571 Kbps
Аудио: Аудио #1: AC3, 448 Kbps, 48.0 KHz, 6 ch

МедиаИнфо

General
Complete name                    : The.Garden.Of.Eden.2008.DVDRip.avi
Format                           : AVI
Format/Info                      : Audio Video Interleave
File size                        : 1.37 GiB
Duration                         : 1h 36mn
Overall bit rate                 : 2 028 Kbps
Writing application              : VirtualDubMod 1.5.10.3 | www.virtualdub-fr.org || (build 2550/release)
Writing library                  : VirtualDubMod build 2550/release
Video
ID                               : 0
Format                           : MPEG-4 Visual
Format profile                   : Advanced Simple@L5
Format settings, BVOP            : Yes
Format settings, QPel            : No
Format settings, GMC             : No warppoints
Format settings, Matrix          : Default (H.263)
Codec ID                         : XVID
Codec ID/Hint                    : XviD
Duration                         : 1h 36mn
Bit rate                         : 1 571 Kbps
Width                            : 720 pixels
Height                           : 400 pixels
Display aspect ratio             : 16:9
Frame rate                       : 23.976 fps
Color space                      : YUV
Chroma subsampling               : 4:2:0
Bit depth                        : 8 bits
Scan type                        : Progressive
Bits/(Pixel*Frame)               : 0.228
Stream size                      : 1.06 GiB (77%)
Writing library                  : XviD 1.2.1 (UTC 2008-12-04)
Audio
ID                               : 1
Format                           : AC-3
Format/Info                      : Audio Coding 3
Mode extension                   : CM (complete main)
Codec ID                         : 2000
Duration                         : 1h 36mn
Bit rate mode                    : Constant
Bit rate                         : 448 Kbps
Channel(s)                       : 6 channels
Channel positions                : Front: L C R, Side: L R, LFE
Sampling rate                    : 48.0 KHz
Bit depth                        : 16 bits
Stream size                      : 310 MiB (22%)
Alignment                        : Split accross interleaves
Interleave, duration             : 42 ms (1.00 video frame)
Interleave, preload duration     : 500 ms

Скриншоты

Создавать темы 17-Май-2013 10:44

[Профиль]  [ЛС] 

jaska-3d ®

Стаж: 5 лет 8 месяцев

Сообщений: 250

Симпатии: 25

Исповедь поп-исполнителя, Исповедь инструктора по автовождению, Исповедь об отдыхе в летнем лагере

Создавать темы 19-Май-2013 11:41

[Профиль]  [ЛС] 

beck8788

Стаж: 7 лет 4 месяца

Сообщений: 88

Симпатии: 1

Встанете на раздачу, уже месяц ничего не качает, остановилась 86,7%.

Создавать темы 02-Янв-2014 09:36

[Профиль]  [ЛС] 

beck8788

Стаж: 7 лет 4 месяца

Сообщений: 88

Симпатии: 1

ауу кто небуд будет раздавать, уже больше 8 раз нажал кнопку "Позвать закачавших".

Создавать темы 03-Янв-2014 21:30

[Профиль]  [ЛС] 

beck8788

Стаж: 7 лет 4 месяца

Сообщений: 88

Симпатии: 1

подсчитал и сегодня круглая, десятая нажатия кнопки "Позвать закачавших" и никакого изменения в раздаче. АУУУУУУУ вернитесь на раздачу!....

Создавать темы 04-Янв-2014 21:59

[Профиль]  [ЛС] 

beck8788

Стаж: 7 лет 4 месяца

Сообщений: 88

Симпатии: 1

Ни кто не хочет присоединится на раздачу! bu ca md

Создавать темы 06-Янв-2014 21:21

[Профиль]  [ЛС] 

beck8788

Стаж: 7 лет 4 месяца

Сообщений: 88

Симпатии: 1

Скачавшие вернитесь на часок пожалуйста.

Создавать темы 10-Янв-2014 15:21

[Профиль]  [ЛС] 

kamilchik

Стаж: 5 лет 1 месяц

Сообщений: 50

а оригинальная дорожка? ее нет?

Создавать темы 10-Янв-2014 15:30

[Профиль]  [ЛС] 

skynet

Стаж: 5 лет 7 месяцев

Сообщений: 296

Симпатии: 6

Уже почти месяц качаю 15 %! Люди помогите!

Создавать темы 25-Июл-2014 18:56

[Профиль]  [ЛС] 

skynet

Стаж: 5 лет 7 месяцев

Сообщений: 296

Симпатии: 6

858391Уже почти месяц качаю 15 %! Люди помогите!
ca bu bz

Создавать темы 28-Июл-2014 17:49

[Профиль]  [ЛС] 
Показать сообщения:    
Ответить на тему

Текущее время: 22-Авг 19:55

Часовой пояс: UTC + 5



Вы не можете начинать темы
Вы не можете отвечать на сообщения
Вы не можете редактировать свои сообщения
Вы не можете удалять свои сообщения
Вы не можете голосовать в опросах
Вы не можете прикреплять файлы к сообщениям
Вы не можете скачивать файлы