Нереальный кастинг (Руслан Кечеджиян) [2010 г., Комедия, DVDRip]

Ответить на тему
 

Nosferatu ®

Стаж: 4 года 5 месяцев

Сообщений: 79

Симпатии: 5

Нереальный кастинг- -Год выпуска: 2010
Жанр: Комедия
Продолжительность: 01:27:00
Режиссер: Руслан Кечеджиян
В ролях:
Александр Саликов, Алла Моренец, Антонина Терковская, Грант Мнацаганьян, Игорь Стребков
Описание:
Сюжет фильма повествует о том, как два молодых человека Грант и Саша, друзья по жизни, случайно попадают в киностудию на кастинг, где режиссер обращает на них внимание. Отвечая на вопрос на кастинге: «Ты кто?», Грант отвечает: «Я — хулиган и негодяй». Режиссер предлагает этим обычным, в общем-то, парням, неожиданный эксперимент. Друзья получают в руки камеру и заманчивое предложение — снять фильм про свою жизнь. И они сняли, не пряча от камеры ничего. Трое друзей являют собой своеобразный «синдикат удачи», в их арсенале не один способ раздобыть денег или обольстить особ противоположного пола. Такие парни, как Грант с Сашей, есть в каждом дворе, улице, городе России, в их представлении 90-е — романтическое время, но живут они сегодня, и шагнуть из грязи в князи им не будет суждено. Зато они найдут любовь, которую они, к слову, не искали — она сама нашла их.
Качество: DVDRip
Формат: AVI
Видео кодек: DivX
Аудио кодек: MP3
Видео: DivX 5 640x360 25fps 987 Kbps [Stream 00]
Аудио: MP3 44100Hz stereo 128kbps [Stream 01]

Media Info

Format : AVI
Format/Info : Audio Video Interleave
File size : 701 MiB
Duration : 1h 27mn
Overall bit rate : 1 127 Kbps
Writing application : Lavf51.12.1
Writing library : VirtualDub build 32817/release
Video
ID : 0
Format : MPEG-4 Visual
Format settings, BVOP : 1
Format settings, QPel : No
Format settings, GMC : No warppoints
Format settings, Matrix : Default (H.263)
Muxing mode : Packed bitstream
Codec ID : DX50
Codec ID/Hint : DivX 5
Duration : 1h 27mn
Bit rate : 987 Kbps
Width : 640 pixels
Height : 360 pixels
Display aspect ratio : 16:9
Frame rate : 25.000 fps
Color space : YUV
Chroma subsampling : 4:2:0
Bit depth : 8 bits
Scan type : Progressive
Compression mode : Lossy
Bits/(Pixel*Frame) : 0.171
Stream size : 614 MiB (88%)
Writing library : DivX 6.8.5 (UTC 2009-08-20)
Audio
ID : 1
Format : MPEG Audio
Format version : Version 1
Format profile : Layer 3
Mode : Joint stereo
Mode extension : MS Stereo
Codec ID : 55
Codec ID/Hint : MP3
Duration : 1h 27mn
Bit rate mode : Constant
Bit rate : 128 Kbps
Channel(s) : 2 channels
Sampling rate : 44.1 KHz
Compression mode : Lossy
Stream size : 79.7 MiB (11%)
Alignment : Aligned on interleaves
Interleave, duration : 26 ms (0.65 video frame)
Interleave, preload duration : 522 ms

Скриншоты











Приятного просмотра! az


Последний раз редактировалось: Nosferatu (2013-05-23 23:32), всего редактировалось 3 раз(а)

Создавать темы 17-Май-2013 14:36

[Профиль]  [ЛС] 

Вован

Стаж: 5 лет 6 месяцев

Сообщений: 85

Симпатии: 4

  ta ta

Создавать темы 17-Май-2013 14:39

[Профиль]  [ЛС] 

Lucky_95

Стаж: 4 года 10 месяцев

Сообщений: 9

Скорость плиииз

Создавать темы 17-Май-2013 15:23

[Профиль]  [ЛС] 
Показать сообщения:    
Ответить на тему

Текущее время: 18-Авг 02:31

Часовой пояс: UTC + 5



Вы не можете начинать темы
Вы не можете отвечать на сообщения
Вы не можете редактировать свои сообщения
Вы не можете удалять свои сообщения
Вы не можете голосовать в опросах
Вы не можете прикреплять файлы к сообщениям
Вы не можете скачивать файлы