Крепкий орешек: Хороший день, чтобы умереть / A Good Day to Die Hard (Джон Мур / John Moore) [2013, Боевик, криминал, триллер, WEB-DL 720p] Dub (Звук с CamRip)

Ответить на тему
 

aziz2725272 ®

Стаж: 4 года 11 месяцев

Сообщений: 158

Симпатии: 6

Крепкий орешек: Хороший день, чтобы умереть
A Good Day to Die Hard
Год выпуска: 2013
Страна: США / Twentieth Century Fox Film Corporation, TSG Entertainment, Giant Pictures
Жанр: Боевик, криминал, триллер
Продолжительность: 01:38:11
Перевод: Профессиональный (дублированный) (Звук с CamRip)
Режиссер: Джон Мур / John Moore
В ролях: Брюс Уиллис, Джай Кортни, Себастьян Кох, Юлия Снигирь, Радивойе Буквич, Сергей Колесников, Мэри Элизабет Уинстэд, Коул Хаузер, Амори Ноласко, Роман Лукнар
Описание: Джон МакКлейн прибывает в Москву, чтобы вызволить из тюрьмы своего непредсказуемого сына, но холодная голова и железные мускулы вязнут в паутине российской действительности. Дело, в которое влип МакКлейн-младший, оказывается настолько «опасной трясиной», что отцу и сыну, чтобы выжить и в очередной раз спасти мир, приходится объединить свои усилия, забыв прежние, казалось бы, непреодолимые разногласия.
Дата мировой премьеры: 7 февраля 2013
Дата российской премьеры: 14 февраля 2013, «Двадцатый Век Фокс СНГ»
Дата выхода DVD релиза: 6 июня 2013, «Двадцатый Век Фокс СНГ»
Дата выхода Blu-Ray релиза: 6 июня 2013, «Двадцатый Век Фокс СНГ»
Качество: WEB-DL 720p [HDWinG]
Формат: MKV
Видео кодек: MPEG-4 AVC/H.264 1280x692, 3984 kb/s, 23.976 fps
Аудио кодек: AC3
Видео: MPEG-4 AVC/H.264 1280x692, 3984 kb/s, 23.976 fps
Аудио: Russian: MP3, 192 kb/s (2 ch)
Аудио: English: AC3, 384 Kb/s (6 ch)

MI

Format : Matroska
Format version : Version 4 / Version 2
File size : 3.19 GiB
Duration : 1h 38mn
Overall bit rate : 4 648 Kbps
Encoded date : UTC 2013-05-15 10:50:46
Writing application : mkvmerge v6.1.0 ('Old Devil') built on Mar 2 2013 14:32:37
Writing library : libebml v1.3.0 + libmatroska v1.4.0
Video
ID : 1
Format : AVC
Format/Info : Advanced Video Codec
Format profile : [email protected]
Format settings, CABAC : No
Format settings, ReFrames : 2 frames
Codec ID : V_MPEG4/ISO/AVC
Duration : 1h 38mn
Bit rate : 3 980 Kbps
Width : 1 280 pixels
Height : 692 pixels
Display aspect ratio : 1.85:1
Frame rate mode : Constant
Frame rate : 23.976 fps
Color space : YUV
Chroma subsampling : 4:2:0
Bit depth : 8 bits
Scan type : Progressive
Bits/(Pixel*Frame) : 0.187
Stream size : 2.73 GiB (86%)
Title : A.Good.Day.to.Die.Hard.2013.720p.WEB-DL.H264-HDWinG
Language : English
Default : Yes
Forced : Yes
Color primaries : BT.709
Transfer characteristics : BT.709
Matrix coefficients : BT.709
Audio #1
ID : 2
Format : MPEG Audio
Format version : Version 1
Format profile : Layer 3
Mode : Joint stereo
Codec ID : A_MPEG/L3
Codec ID/Hint : MP3
Duration : 1h 38mn
Bit rate mode : Constant
Bit rate : 192 Kbps
Channel(s) : 2 channels
Sampling rate : 48.0 KHz
Compression mode : Lossy
Stream size : 135 MiB (4%)
Title : DD 2.0 @ 192 kbps - Dub, TS
Language : Russian
Default : Yes
Forced : Yes
Audio #2
ID : 3
Format : AC-3
Format/Info : Audio Coding 3
Mode extension : CM (complete main)
Format settings, Endianness : Big
Codec ID : A_AC3
Duration : 1h 38mn
Bit rate mode : Constant
Bit rate : 384 Kbps
Channel(s) : 6 channels
Channel positions : Front: L C R, Side: L R, LFE
Sampling rate : 48.0 KHz
Bit depth : 16 bits
Compression mode : Lossy
Stream size : 270 MiB (8%)
Title : DD 5.1 @ 384 kbps
Language : English
Default : No
Forced : No
Menu
00:00:00.000 : en:Chapter 1
00:02:52.000 : en:Chapter 2
00:05:02.000 : en:Chapter 3
00:09:50.000 : en:Chapter 4
00:12:28.000 : en:Chapter 5
00:15:41.000 : en:Chapter 6
00:18:18.000 : en:Chapter 7
00:21:45.000 : en:Chapter 8
00:26:57.000 : en:Chapter 9
00:30:57.000 : en:Chapter 10
00:34:33.000 : en:Chapter 11
00:38:21.000 : en:Chapter 12
00:40:28.000 : en:Chapter 13
00:44:12.000 : en:Chapter 14
00:48:23.000 : en:Chapter 15
00:51:13.000 : en:Chapter 16
00:54:42.000 : en:Chapter 17
00:59:23.000 : en:Chapter 18
01:01:22.000 : en:Chapter 19
01:06:19.000 : en:Chapter 20
01:09:42.000 : en:Chapter 21
01:14:16.000 : en:Chapter 22
01:15:42.000 : en:Chapter 23
01:19:29.000 : en:Chapter 24
01:21:39.000 : en:Chapter 25
01:23:27.000 : en:Chapter 26
01:27:59.000 : en:Chapter 27
01:31:54.000 : en:Chapter 28

Скриншоты







Последний раз редактировалось: aziz2725272 (2013-05-17 20:24), всего редактировалось 1 раз

Создавать темы 17-Май-2013 19:23

[Профиль]  [ЛС] 

red_devil

Стаж: 5 лет 7 месяцев

Сообщений: 32

какой перевод лицензия или кам рип?непонятно

Создавать темы 17-Май-2013 19:32

[Профиль]  [ЛС] 

Pika4u

Стаж: 4 года 4 месяца

Сообщений: 32

Симпатии: 7

да очень Интересно автор

Создавать темы 17-Май-2013 19:54

[Профиль]  [ЛС] 

aziz2725272 ®

Стаж: 4 года 11 месяцев

Сообщений: 158

Симпатии: 6

какой перевод лицензия или кам рип?непонятно
Профессиональный (дублированный) (Звук с CamRip) написана

Создавать темы 17-Май-2013 20:25

[Профиль]  [ЛС] 

sergey7801325

Стаж: 4 года 4 месяца

Сообщений: 1

4еткий фильм

Создавать темы 17-Май-2013 21:49

[Профиль]  [ЛС] 

aziz2725272 ®

Стаж: 4 года 11 месяцев

Сообщений: 158

Симпатии: 6

4еткий фильм
Не 4еткий а СУПЕР

Создавать темы 17-Май-2013 22:37

[Профиль]  [ЛС] 

adham_boy

Стаж: 6 лет 11 месяцев

Сообщений: 122

Симпатии: 9

ждём пока,,,,

Создавать темы 18-Май-2013 08:12

[Профиль]  [ЛС] 

aziz2725272 ®

Стаж: 4 года 11 месяцев

Сообщений: 158

Симпатии: 6

ждём пока,,,,
Ну фильм Супер

Создавать темы 18-Май-2013 19:24

[Профиль]  [ЛС] 

4LIFEIP

Стаж: 4 года 5 месяцев

Сообщений: 127

Симпатии: 1

и тут вроде норма, Крепкий орешек: Хороший день, чтобы умереть / A Good Day to Die Hard (Джон Мур) [2013 г., боевик, триллер, криминал, WEB-DLRip] [Чистый Звук] в принципе качество с Сam не оч,лучше чистым звуком смотреть,ну эт мое мнение,автору респект,что залил.
)ну картинке лучше,да).

Создавать темы 19-Май-2013 01:00

[Профиль]  [ЛС] 

Топик был перенесен из форума Фильмы за 2013 (новинки) в форум HD-AVC

ziyod

Создавать темы 19-Май-2013 05:59

 
Показать сообщения:    
Ответить на тему

Текущее время: 25-Сен 13:00

Часовой пояс: UTC + 5



Вы не можете начинать темы
Вы не можете отвечать на сообщения
Вы не можете редактировать свои сообщения
Вы не можете удалять свои сообщения
Вы не можете голосовать в опросах
Вы не можете прикреплять файлы к сообщениям
Вы не можете скачивать файлы