Зомбиби или Завали зомбака / Zombibi (Мартин Смитс / Martijn Smits, Эрвин ван ден Эшоф / Erwin van den Eshof) [2012, Нидерланды, ужасы, комедия, BDRip] MVO ( ViruseProject )

Ответить на тему
 

Suxrob89 ®

Стаж: 7 лет 4 месяца

Сообщений: 933

Симпатии: 564

-Зомбиби или Завали зомбака / Zombibi- Страна: Нидерланды
Жанр: ужасы, комедия
Год выпуска: 2012
Продолжительность: 01:25:24
Перевод: Любительский (многоголосый закадровый) ViruseProject
Cубтитры: нет
Оригинальная аудиодорожка: нет-Режиссер: Мартин Смитс / Martijn Smits, Эрвин ван ден Эшоф / Erwin van den Eshof-В ролях: Яхья Гайер, Мимон Юлед Ради, Серджо Хасселбайнк, Гиги Равелли, Юрих Амем, Ноэль Дилан, Ян Доенсе, Рик Синкельдам и др.-Описание: Обломки орбитальной станции «Мир» падают на Амстердам, принеся с собой из космоса смертоносный вирус. Во мгновение ока голландская столица превращается в кормушку для кровожадных толп оживших мертвецов. И где-то посреди всеобщего бардака несколько оболтусов пытаются найти свой путь к спасению.- - -Качество видео: BDRip
Формат видео: AVI
Видео: MPEG4, XviD, 640x272 (2.35:1), 24.000 fps, 1 000 Kbps (0.239 bit/pixel)
Аудио: MP3, 48.0 KHz, 2 ch, 128 Kbps, CBR-

MediaInfo

C:\Users\Acer\Desktop\Oeoeaie\700mb\Zombibi.2012.BDRip.700mb.avi
General
Complete name : C:\Users\Acer\Desktop\Oeoeaie\700mb\Zombibi.2012.BDRip.700mb.avi
Format : AVI
Format/Info : Audio Video Interleave
File size : 695 MiB
Duration : 1h 25mn
Overall bit rate : 1 137 Kbps
Writing application : VirtualDubMod 1.5.10.2 (build 2540/release)
Writing library : VirtualDubMod build 2540/release
Video #0
ID : 0
Format : MPEG-4 Visual
Format profile : [email protected]
Format settings, BVOP : No
Format settings, QPel : No
Format settings, GMC : No warppoints
Format settings, Matrix : Default (H.263)
Codec ID : XVID
Codec ID/Hint : XviD
Duration : 1h 25mn
Bit rate : 1 000 Kbps
Width : 640 pixels
Height : 272 pixels
Display aspect ratio : 2.35:1
Frame rate : 24.000 fps
Color space : YUV
Chroma subsampling : 4:2:0
Bit depth : 8 bits
Scan type : Progressive
Compression mode : Lossy
Bits/(Pixel*Frame) : 0.239
Stream size : 611 MiB (88%)
Writing library : XviD 64
Audio #1
ID : 1
Format : MPEG Audio
Format version : Version 1
Format profile : Layer 3
Codec ID : 55
Codec ID/Hint : MP3
Duration : 1h 25mn
Bit rate mode : Constant
Bit rate : 128 Kbps
Channel(s) : 2 channels
Sampling rate : 48.0 KHz
Compression mode : Lossy
Stream size : 78.2 MiB (11%)
Alignment : Aligned on interleaves
Interleave, duration : 42 ms (1.00 video frame)
Interleave, preload duration : 504 ms

Скриншот c названием фильма

Скриншоты

Создавать темы 18-Май-2013 06:38

[Профиль]  [ЛС] 

100stiks

Стаж: 4 года 10 месяцев

Сообщений: 35

Симпатии: 3

А где коментарии ???? Стоит ли качать?

Создавать темы 23-Май-2013 14:05

[Профиль]  [ЛС] 

wink

Стаж: 5 лет 2 месяца

Сообщений: 10

Симпатии: 1

Посмотрел фильм, драки с зомби убогие, а вообще фильм в стиле тв3. Только время потратил зря.

Создавать темы 23-Май-2013 19:02

[Профиль]  [ЛС] 
Показать сообщения:    
Ответить на тему

Текущее время: 15-Дек 11:31

Часовой пояс: UTC + 5



Вы не можете начинать темы
Вы не можете отвечать на сообщения
Вы не можете редактировать свои сообщения
Вы не можете удалять свои сообщения
Вы не можете голосовать в опросах
Вы не можете прикреплять файлы к сообщениям
Вы не можете скачивать файлы