Из ада / From Hell (Альберт Хьюз, Аллен Хьюз) [2001 г., ужасы, триллер, криминал, детектив, HDRip-AVC]

Ответить на тему
 

igor1968 ®

Стаж: 5 лет 5 месяцев

Сообщений: 366

Симпатии: 197

Из ада / From HellКогда нибудь наши потомки скажут что я породил 20 век .
Джек патрошитель
1888 г.
Год выпуска: 2001
Страна:
Жанр: ужасы, триллер, криминал, детектив
Продолжительность: 02:02:12
Перевод: Профессиональный (полное дублирование)
-Режиссер: Альберт Хьюз, Аллен Хьюз-В ролях:Джонни Депп, Хизер Грэм, Йен Холм, Робби Колтрейн, Йен Ричардсон, Джейсон Флеминг, Катрин Картлидж, Теренс Харви, Сьюзэн Линч, Пол Риз, Лесли Шарп, Estelle Skornik, Николас МакГафи, Annabelle Apsion, Джоэнна Пейдж, Марк Декстер, Дэнни Мидуинтер, Саманта Спиро, Дэвид Шофилд, Bryon Fear, Питер Айр
Роли дублировали: Александр Баргман, Анна Геллер, Геннадий Богачёв, Вадим Гущин,
Николай Буров ...
- Он — воплощение тьмы и ужаса. Он самый таинственный и знаменитый из всех серийных убийц, известных истории. Он погрузил Англию в атмосферу страха и породил массу слухов и домыслов. Убийца, который знает больше простого мясника или лаборанта. Убивая, он совершает чудовищный ритуал. Его прозвище — Джек-Потрошитель.
Поймать его пытается инспектор Фред Эбберлайн. С помощью опиума он усиливает свой природный дар ясновидения и приходит к выводу, что дело Джека-Потрошителя — часть злодейского заговора, в который замешан Орден Масонов, выполняющий, в свою очередь, волю королевского дома.
-   -

MediaInfo

General
Unique ID : 250760904991019548949499702370170077326 (0xBCA6CB281587200FB7EDF01F9A9C808E)
Complete name : From Hell.2001.HDRip-AVC.mkv
Format : Matroska
Format version : Version 4 / Version 2
File size : 1.45 GiB
Duration : 2h 2mn
Overall bit rate : 1 699 Kbps
Movie name : Из ада / From Hell (2001) HDRip-AVC rip by Rulya74
Encoded date : UTC 2013-05-16 07:13:08
Writing application : mkvmerge v6.2.0 ('Promised Land') built on Apr 28 2013 12:22:01
Writing library : libebml v1.3.0 + libmatroska v1.4.0
Video
ID : 1
Format : AVC
Format/Info : Advanced Video Codec
Format profile : [email protected]
Format settings, CABAC : Yes
Format settings, ReFrames : 14 frames
Codec ID : V_MPEG4/ISO/AVC
Duration : 2h 2mn
Bit rate : 1 187 Kbps
Width : 1 024 pixels
Height : 432 pixels
Display aspect ratio : 2.40:1
Frame rate : 23.976 fps
Color space : YUV
Chroma subsampling : 4:2:0
Bit depth : 8 bits
Scan type : Progressive
Bits/(Pixel*Frame) : 0.112
Stream size : 1 009 MiB (68%)
Writing library : x264 core 132 r2310 76a5c3a
Encoding settings : cabac=1 / ref=14 / deblock=1:-2:-1 / analyse=0x3:0x113 / me=umh / subme=9 / psy=1 / psy_rd=1.32:0.10 / mixed_ref=1 / me_range=32 / chroma_me=1 / trellis=2 / 8x8dct=1 / cqm=0 / deadzone=21,11 / fast_pskip=0 / chroma_qp_offset=-3 / threads=12 / lookahead_threads=3 / sliced_threads=0 / nr=0 / decimate=1 / interlaced=0 / bluray_compat=0 / constrained_intra=0 / bframes=10 / b_pyramid=2 / b_adapt=2 / b_bias=0 / direct=3 / weightb=1 / open_gop=0 / weightp=2 / keyint=240 / keyint_min=22 / scenecut=40 / intra_refresh=0 / rc_lookahead=40 / rc=2pass / mbtree=1 / bitrate=1187 / ratetol=1.0 / qcomp=0.60 / qpmin=0 / qpmax=69 / qpstep=4 / cplxblur=20.0 / qblur=0.5 / vbv_maxrate=62500 / vbv_bufsize=78125 / nal_hrd=none / ip_ratio=1.40 / aq=1:1.00
Default : Yes
Forced : No
Audio #1
ID : 2
Format : AC-3
Format/Info : Audio Coding 3
Mode extension : CM (complete main)
Format settings, Endianness : Big
Codec ID : A_AC3
Duration : 2h 2mn
Bit rate mode : Constant
Bit rate : 384 Kbps
Channel(s) : 6 channels
Channel positions : Front: L C R, Side: L R, LFE
Sampling rate : 48.0 KHz
Bit depth : 16 bits
Compression mode : Lossy
Stream size : 336 MiB (23%)
Title : Дублированный
Language : Russian
Default : Yes
Forced : No
Audio #2
ID : 3
Format : AC-3
Format/Info : Audio Coding 3
Mode extension : CM (complete main)
Format settings, Endianness : Big
Codec ID : A_AC3
Duration : 2h 2mn
Bit rate mode : Constant
Bit rate : 128 Kbps
Channel(s) : 2 channels
Channel positions : Front: L R
Sampling rate : 48.0 KHz
Bit depth : 16 bits
Compression mode : Lossy
Stream size : 112 MiB (8%)
Title : Оригинал
Language : English
Default : No
Forced : No
Text #1
ID : 4
Format : UTF-8
Codec ID : S_TEXT/UTF8
Codec ID/Info : UTF-8 Plain Text
Language : Russian
Default : Yes
Forced : No
Text #2
ID : 5
Format : UTF-8
Codec ID : S_TEXT/UTF8
Codec ID/Info : UTF-8 Plain Text
Language : English
Default : No
Forced : No
-Качество: HDRip-AVC
Формат: MKV
Видео кодек: H.264
Аудио кодек: AC3
Видео: 1024x432 (2,40:1), 23,976 fps, 1187 kbps, 0.112 bit/pixel
Аудио: Аудио #1: 48 kHz, AC3 Dolby Digital, 6 ch, ~384.00 kbps (Русский)
Аудио #2: 48 kHz, AC3 Dolby Digital, 2 ch, ~128.00 kbps (Английский)
Субтитры: Русские, Английские (отключаемые)
-

Скриншоты

-http://mover.uz/watch/DVgOdvGj/-http://mytube.uz/ru/tracks/223491.htm-


Последний раз редактировалось: igor1968 (2013-05-18 12:47), всего редактировалось 7 раз(а)

Создавать темы 18-Май-2013 08:33

[Профиль]  [ЛС] 

igor1968 ®

Стаж: 5 лет 5 месяцев

Сообщений: 366

Симпатии: 197

Фаил скачан ТУТ

Создавать темы 18-Май-2013 08:45

[Профиль]  [ЛС] 

Топик был перенесен из форума Зарубежное кино в форум HD-AVC

ziyod

Создавать темы 19-Май-2013 06:05

 

натали

Стаж: 5 лет 6 месяцев

Сообщений: 26

Симпатии: 3

Встаньте на раздачу, пожалуйста!

Создавать темы 19-Дек-2013 17:51

[Профиль]  [ЛС] 
Показать сообщения:    
Ответить на тему

Текущее время: 21-Авг 00:13

Часовой пояс: UTC + 5



Вы не можете начинать темы
Вы не можете отвечать на сообщения
Вы не можете редактировать свои сообщения
Вы не можете удалять свои сообщения
Вы не можете голосовать в опросах
Вы не можете прикреплять файлы к сообщениям
Вы не можете скачивать файлы