Программа защиты принцесс / Princess Protection Program (Эллисон Лидди) [2009 г., Драма, Комедия, Семейный, DVDRip]

Ответить на тему
 

Nosferatu ®

Стаж: 4 года 8 месяцев

Сообщений: 79

Симпатии: 5

Программа защиты принцесс / Princess Protection Program- -
Год выпуска: 2009
Страна: США
Жанр: Драма, Комедия, Семейный
Продолжительность: 01:29:25
Перевод: Профессиональный (многоголосый, закадровый)
Режиссер: Эллисон Лидди
В ролях:
Дейл Дикки, Деми Ловато, Джеми Чунг, Джонни Рэй, Кевин Шмидт, Молли Хэйгэн, Николас Браун, Роберт Адамсон, Саманта Дроук, Селена Гомес
Описание:
Когда крошечную страну захватывает диктатор, молодая «Принцесса» Рози, арестована в соответствии с «Программой защиты принцесс». Она сбегает далеко в деревеньку Висконсин, где она должна изучить и обмыслить свою жизнь как нормальный американский подросток. В процессе приспосабливания к новой жизни, Рози меняется…
Качество: DVDRip
Формат: AVI
Видео кодек: XviD
Аудио кодек: AC3
Видео: Xvid 704x384 23.976fps 2 184 Kbps[Stream 00]
Аудио: Dolby AC3 48000Hz 6ch 384kbps [Stream 01]

Media Info

Format : AVI
Format/Info : Audio Video Interleave
File size : 1.36 GiB
Duration : 1h 29mn
Overall bit rate : 2 184 Kbps
Movie name : Princess Protection Program (2009)
Director : ELEKTRI4KA [uniongang.ru]
Writing application : VirtualDubMod 1.5.4.1 (build 2178/release)
Copyright : http://uniongang.ru/
Video
ID : 0
Format : MPEG-4 Visual
Format profile : Advanced [email protected]
Format settings, BVOP : 3
Format settings, QPel : No
Format settings, GMC : No warppoints
Format settings, Matrix : Default (H.263)
Codec ID : XVID
Codec ID/Hint : XviD
Duration : 1h 29mn
Bit rate : 1 791 Kbps
Width : 704 pixels
Height : 384 pixels
Display aspect ratio : 1.85:1
Frame rate : 23.976 fps
Color space : YUV
Chroma subsampling : 4:2:0
Bit depth : 8 bits
Scan type : Progressive
Compression mode : Lossy
Bits/(Pixel*Frame) : 0.276
Stream size : 1.12 GiB (82%)
Writing library : XviD 1.2.0.dev47 (UTC 2006-11-01)
Audio
ID : 1
Format : AC-3
Format/Info : Audio Coding 3
Mode extension : CM (complete main)
Format settings, Endianness : Big
Codec ID : 2000
Duration : 1h 29mn
Bit rate mode : Constant
Bit rate : 384 Kbps
Channel(s) : 6 channels
Channel positions : Front: L C R, Side: L R, LFE
Sampling rate : 48.0 KHz
Bit depth : 16 bits
Compression mode : Lossy
Stream size : 246 MiB (18%)
Alignment : Split accross interleaves
Interleave, duration : 42 ms (1.00 video frame)
Interleave, preload duration : 500 ms

Скриншоты









Приятного просмотра! az

Создавать темы 18-Май-2013 14:08

[Профиль]  [ЛС] 

klyaksa_va

Стаж: 3 года 11 месяцев

Сообщений: 1

хочу скачать фильм а нет сидов! что за безобразие!!!! дайте сидов!!!!!

Создавать темы 21-Дек-2013 23:10

[Профиль]  [ЛС] 

ranger585

Стаж: 4 года 7 месяцев

Сообщений: 3

Подключайте безлимит и качайте с рунета)

Создавать темы 10-Авг-2014 17:59

[Профиль]  [ЛС] 
Показать сообщения:    
Ответить на тему

Текущее время: 21-Ноя 20:49

Часовой пояс: UTC + 5



Вы не можете начинать темы
Вы не можете отвечать на сообщения
Вы не можете редактировать свои сообщения
Вы не можете удалять свои сообщения
Вы не можете голосовать в опросах
Вы не можете прикреплять файлы к сообщениям
Вы не можете скачивать файлы