Магазинчик самоубийств 3D / Le magasin des suicides (Патрис Леконт) [2012 г., мультфильм, мюзикл, комедия, BDRip]

Ответить на тему
 

rsanjar ®

Стаж: 6 лет 6 месяцев

Сообщений: 32

Симпатии: 3

Магазинчик самоубийств 3D / Le magasin des suicides
Год выпуска: 2012
Страна: Франция, Канада, Бельгия
Жанр: мультфильм, мюзикл, комедия, ...
Продолжительность: 85 мин. / 01:25:15
Перевод: Профессиональный (многоголосый, закадровый)
Режиссер: Патрис Леконт
В ролях: Бернар Алан, Изабель Спад, Кейси Моттет Кляйн, Изабель Джани, Лоран Жандрон, Пьер-Франсуа, Мартен-Лаваль, Эрик Метайе, Жак Мату, Юрбен Канселье, Паскаль Парментье
Описание: В неком городе, где жизнь невероятно уныла и невыносима, на протяжении многих поколений процветает магазин, который торгует всем необходимым для совершения самоубийств. Всё идёт замечательно до тех пор, пока в семье владельца этого магазина не рождается Алан — жизнелюбивый и весёлый малыш.
Доп. информация:
Песни звучат в оригинальном(французком) языке....так даже лучше.
P.S. имеются субтитры к песням.

Качество: BDRip
Формат: MKV
Формат 3D: Half OverUnder / Вертикальная анаморфная стереопара
Видео кодек: AVC
Аудио кодек: AC3
Видео: AVC (H264) 1920x1080 23.98fps 9 941 Kbps
Аудио: Dolby AC3 48000Hz 6ch

Скриншоты



mediainfo

Movie name : Магазинчик самоубийств / Le magasin des suicides / The Suicide Shop (3D) 2012
Encoded date : UTC 2013-04-18 15:09:53
Writing application : mkvmerge v5.8.0 ('No Sleep / Pillow') built on Sep 2 2012 15:37:04
Writing library : libebml v1.2.3 + libmatroska v1.3.0
Video
ID : 1
Format : AVC
Format/Info : Advanced Video Codec
Format profile : [email protected]
Format settings, CABAC : Yes
Format settings, ReFrames : 4 frames
Muxing mode : Container [email protected]
Codec ID : V_MPEG4/ISO/AVC
Duration : 1h 19mn
Bit rate : 9 941 Kbps
Width : 1 920 pixels
Height : 1 080 pixels
Display aspect ratio : 16:9
Frame rate : 23.976 fps
Resolution : 24 bits
Colorimetry : 4:2:0
Scan type : Progressive
Bits/(Pixel*Frame) : 0.200
Stream size : 5.49 GiB (92%)
Title : BDRip by Ash61
Writing library : x264 core 129 r2245 bc13772
Encoding settings : cabac=1 / ref=4 / deblock=1:-3:-3 / analyse=0x3:0x113 / me=umh / subme=9 / psy=1 / psy_rd=1.00:0.15 / mixed_ref=1 / me_range=32 / chroma_me=1 / trellis=2 / 8x8dct=1 / cqm=0 / deadzone=21,11 / fast_pskip=1 / chroma_qp_offset=-3 / threads=12 / lookahead_threads=2 / sliced_threads=0 / nr=0 / decimate=1 / interlaced=0 / bluray_compat=0 / constrained_intra=0 / bframes=8 / b_pyramid=2 / b_adapt=2 / b_bias=0 / direct=3 / weightb=1 / open_gop=0 / weightp=2 / keyint=250 / keyint_min=23 / scenecut=40 / intra_refresh=0 / rc_lookahead=60 / rc=crf / mbtree=1 / crf=16.0 / qcomp=0.70 / qpmin=0 / qpmax=69 / qpstep=4 / vbv_maxrate=40000 / vbv_bufsize=30000 / crf_max=0.0 / nal_hrd=none / frame-packing=4 / ip_ratio=1.40 / aq=1:0.70
Language : French
Audio
ID : 2
Format : AC-3
Format/Info : Audio Coding 3
Codec ID : A_AC3
Duration : 1h 19mn
Bit rate mode : Constant
Bit rate : 640 Kbps
Channel(s) : 6 channels
Channel positions : Front: L C R, Surround: L R, LFE
Sampling rate : 48.0 KHz
Stream size : 363 MiB (6%)
Title : Многоголосый закадровый - BD3D
Language : Russian
Text
ID : 3
Format : UTF-8
Codec ID : S_TEXT/UTF8
Codec ID/Info : UTF-8 Plain Text
Title : Форсированные
Language : Russian
Menu
00:00:00.000 : :1
00:07:33.870 : :2
00:13:02.407 : :3
00:18:25.021 : :4
00:24:31.637 : :5
00:30:33.707 : :6
00:37:01.553 : :7
00:42:59.535 : :8
00:54:28.599 : :9
01:02:52.060 : :10
01:08:09.002 : :11
01:13:44.378 : :12


Последний раз редактировалось: rsanjar (2013-05-19 06:56), всего редактировалось 1 раз

Создавать темы 18-Май-2013 22:39

[Профиль]  [ЛС] 

rsanjar ®

Стаж: 6 лет 6 месяцев

Сообщений: 32

Симпатии: 3

Огромная просьба - не пишите сообщения вроде:"Скорости!!!, газу дайте!!! или Раздача будет?" У меня на раздаче три подобных релиза в 3D.... и не надо жаловаться на скорость отдачи, бывало я сам, скачивал месяц...Спасибо за понимание. Надеюсь вам понравятся релизы.

Создавать темы 19-Май-2013 12:28

[Профиль]  [ЛС] 

iceglam

Стаж: 4 года 10 месяцев

Сообщений: 21

70мб осталось плиз дайте докачать

Создавать темы 27-Май-2013 21:07

[Профиль]  [ЛС] 

MadlenMigrey

Стаж: 3 года 10 месяцев

Сообщений: 10

А есть у нас тут не в три дэ этот анимационный фильм?

Создавать темы 24-Янв-2015 22:59

[Профиль]  [ЛС] 
Показать сообщения:    
Ответить на тему

Текущее время: 20-Авг 22:33

Часовой пояс: UTC + 5



Вы не можете начинать темы
Вы не можете отвечать на сообщения
Вы не можете редактировать свои сообщения
Вы не можете удалять свои сообщения
Вы не можете голосовать в опросах
Вы не можете прикреплять файлы к сообщениям
Вы не можете скачивать файлы