Умопомрачительные фантазии Чарли Свона III / A Glimpse Inside the Mind of Charles Swan III (Роман Коппола) [2012, США / American Zoetrope, A24, The Directors Bureau, комедия, HDRip] [Лицензия]

Ответить на тему
 

Suxrob89 ®

Стаж: 7 лет 1 месяц

Сообщений: 933

Симпатии: 564

-Умопомрачительные фантазии Чарли Свона III
A Glimpse Inside the Mind of Charles Swan III
- Страна: США / American Zoetrope, A24, The Directors Bureau
Жанр: комедия
Год выпуска
: 2012
Продолжительность: 01:25:49
Перевод: Профессиональный (дублированный)[Лицензия]-Режиссер: Роман Коппола-В ролях:
Чарли Шин, Джейсон Шварцман, Билл Мёррей, Кэтрин Уинник, Патриция Аркетт, Обри Плаза, Дермот Малруни, Мэри Элизабет Уинстэд.-Описание:
Чарли Свон-третий — сибарит и ловелас. У него собственное креативное агентство и известные друзья, а жизнь его легка и беззаботна. И главное — Чарли встретил, наконец, любовь всей своей жизни — прекрасную Ивону… Но идиллия длилась недолго: Ивона находит в шкафу богатую коллекцию фотографий прошлых подружек Чарли и, не желая когда-то стать одной из них, уходит. Сердце Чарли Свона-третьего разбито. Спасением становятся эксцентричные фантасмагории, где он во всевозможных невероятных обстоятельствах снова сражается за свою возлюбленную. Сможет ли он вернуть прекрасную Ивону не только в своих умопомрачительных фантазиях, но и в реальной жизни?- -Качество видео: HDRip
Формат видео: AVI
Видео: 720x384 (1.88:1), 23.976 fps, XviD build 50 ~1822 kbps avg, 0.28 bit/pixel
Аудио: 48 kHz, AC3 Dolby Digital, 3/2 (L,C,R,l,r) + LFE ch, ~448 kbps-

MediaInfo

Umopomrachitelnye.fantazii.Charli.Svona.2012.D.HDRip.IRONCLUB.avi
Format : AVI
Format/Info : Audio Video Interleave
File size : 1.37 GiB
Duration : 1h 25mn
Overall bit rate : 2 280 Kbps
Movie name : Umopomrachitelnye.fantazii.Charli.Svona.2012.D.HDRip.IRONCLUB
Director : IRONCLUB
Genre : Comedy
Writing application : VirtualDubMod 1.5.10.2 (build 2540/release)
Original source form/Name : Movie
Video
ID : 0
Format : MPEG-4 Visual
Format profile : Advanced [email protected]
Format settings, BVOP : 1
Format settings, QPel : No
Format settings, GMC : No warppoints
Format settings, Matrix : Custom
Codec ID : XVID
Codec ID/Hint : XviD
Duration : 1h 25mn
Bit rate : 1 823 Kbps
Width : 720 pixels
Height : 384 pixels
Display aspect ratio : 1.85:1
Frame rate : 23.976 fps
Color space : YUV
Chroma subsampling : 4:2:0
Bit depth : 8 bits
Scan type : Progressive
Compression mode : Lossy
Bits/(Pixel*Frame) : 0.275
Stream size : 1.09 GiB (80%)
Writing library : XviD 1.2.1 (UTC 2008-12-04)
Audio
ID : 1
Format : AC-3
Format/Info : Audio Coding 3
Mode extension : CM (complete main)
Format settings, Endianness : Big
Codec ID : 2000
Duration : 1h 25mn
Bit rate mode : Constant
Bit rate : 448 Kbps
Channel(s) : 6 channels
Channel positions : Front: L C R, Side: L R, LFE
Sampling rate : 48.0 KHz
Bit depth : 16 bits
Compression mode : Lossy
Stream size : 275 MiB (20%)
Alignment : Split accross interleaves
Interleave, duration : 42 ms (1.00 video frame)
Interleave, preload duration : 500 ms

Скриншот c названием фильма

Скриншоты



Последний раз редактировалось: Suxrob89 (2013-05-21 05:50), всего редактировалось 2 раз(а)

Создавать темы 19-Май-2013 07:20

[Профиль]  [ЛС] 

Server

Стаж: 7 лет

Сообщений: 67

Симпатии: 2

А 1 и 2 есть?

Создавать темы 19-Май-2013 08:08

[Профиль]  [ЛС] 

skyrocker

Стаж: 5 лет 6 месяцев

Сообщений: 96

Симпатии: 3

А 1 и 2 есть?
это не часть, это Чарли Свон-"третий" . ))

Создавать темы 19-Май-2013 16:33

[Профиль]  [ЛС] 

Server

Стаж: 7 лет

Сообщений: 67

Симпатии: 2

АААА Понятно!))

Создавать темы 20-Май-2013 18:13

[Профиль]  [ЛС] 

Taa6969

Стаж: 6 лет 2 месяца

Сообщений: 123

Симпатии: 2

ну и как фильм ?

Создавать темы 21-Май-2013 10:15

[Профиль]  [ЛС] 

Proxa

Стаж: 5 лет 7 месяцев

Сообщений: 104

Симпатии: 4

Как фильм отпишитесь пожалуйста !

Создавать темы 21-Май-2013 10:44

[Профиль]  [ЛС] 

Alex Dancer

Стаж: 5 лет 8 месяцев

Сообщений: 181

Симпатии: 21

Могу сказать только 2 вещи - рейтинг на Кинопоиске и рецензию оттуда же:
Рейтинг IMDb: 4.80 (1 625)
kinanet
Как мимолётное виденье…
Роман Коппола, второй сын выдающегося американского постановщика Фрэнсиса Форда Копполы (а первый погиб в 22 года в результате несчастного случая на лодке), вот уже на протяжении двух десятилетий подвизается в кино как режиссёр второй группы — не только у своего отца и младшей сестры Софии, но и у Уэса Андерсона, вместе с которым дважды выступил ещё и в качестве соавтора сценария. Сам же Коппола-младший снял лишь два полнометражных фильма — с большим промежутком в 11 лет, причём дебютировал как постановщик довольно поздно: в 36-летнем возрасте, сделав «CQ» (у нас — «Агент Стрекоза», но лучше было бы назвать «ИЩ» по аналогии с тем, что CQ произносится как «Си-Кью», а это соответствует словам Seek You, то есть «Ищу тебя» или просто «Ища»).
Теперь-то стало понятно, что оба авторских проекта Романа Копполы (он же — сценарист и сопродюсер), помимо стремления по-своему стилизовать иную эпоху и реальность, нежели лично знакомую, ещё объединяет желание удалиться куда-то в мир фантазий и грёз, где наконец-то сбывается давно ожидаемое. Но если в «CQ» в некоторой степени удалось иронично и в то же время не без доли ностальгических чувств передать на экране «бурные и безумные шестидесятые», в том числе любовно спародировав самые разные ленты тех лет — от «Альфавиля», «Барбареллы» и бондианы до фильма «2001: Космическая одиссея», то в «Мимолётном видении души Чарльза Суона III» (таков более точный перевод названия) большую часть действия, посвящённого «чокнутым семидесятым», составляют банальные, шаблонные, даже пошлые и не лишённые дурного вкуса комичные сцены.
А столь необходимый лирический настрой, искренняя и доверительная интонация в рассказе о том, что творится глубоко в душе всё-таки непутёвого дизайнера Чарльза Суона III, появляются в последние 20 минут — начиная с запоздалого ночного признания главного героя в любви к покинувшей его девушке по имени Ивана (почти все наши рецензенты упорно называли её Ивоной!). Да и в неожиданном по тональности элегически-праздничном финале, пусть и напоминающем картины Федерико Феллини и Боба Фосси, когда персонажи совершают перед камерой прощальное дефиле, а потом актёры сами представляются зрителям, и съёмочная группа тоже присутствует в кадре — на берегу океана в Калифорнии, как раз и содержалось то ценное и интересное, что могло бы составить суть произведения Романа Копполы. Но это осталось лишь мимолётным видением…

Создавать темы 30-Май-2013 16:02

[Профиль]  [ЛС] 

kirilcha

Стаж: 4 года 3 месяца

Сообщений: 2

Симпатии: 1

норм фильм ?

Создавать темы 03-Июн-2013 16:46

[Профиль]  [ЛС] 

skyrocker

Стаж: 5 лет 6 месяцев

Сообщений: 96

Симпатии: 3

странный непонятный иногда скучный фильм. как раз для всяких каннских фестивалей))

Создавать темы 03-Июн-2013 21:03

[Профиль]  [ЛС] 
Показать сообщения:    
Ответить на тему

Текущее время: 19-Сен 18:29

Часовой пояс: UTC + 5



Вы не можете начинать темы
Вы не можете отвечать на сообщения
Вы не можете редактировать свои сообщения
Вы не можете удалять свои сообщения
Вы не можете голосовать в опросах
Вы не можете прикреплять файлы к сообщениям
Вы не можете скачивать файлы