На Дерибасовской хорошая погода или на Брайтон-Бич опять идут дожди (Леонид Гайдай) [1992 г., Комедия, Советское кино, DVDRip]

Ответить на тему
 

nasri91 ®

Стаж: 4 года 8 месяцев

Сообщений: 48

Симпатии: 1

На Дерибасовской хорошая погода или на Брайтон-Бич опять идут дожди
Год выпуска: 1992
Жанр: Комедия, Советское кино
Продолжительность: 01:30:11
Режиссер: Леонид Гайдай
В ролях: Дмитрий Харатьян, Армен Джигарханян, Андрей Мягков, Келли МакГиллис, Елена Бушуева, Александр Лойе, Руслан Ахметов, Аркадий Инин, Мамука Кикалейшвили, Леонид Куравлев, Вячеслав Разбегаев, Муза Крепкогорская, Юрий Волынцев, Евгений Весник, Михаил Кокшенов
Описание: Историко-революционный фильм для детей младшего, старшего, зрелого и пожилого возраста, о тех далеких, незабываемых временах, когда еще были СССР, КПСС и КОЛБАСА по 2 руб. 20 коп.
Намечено проведение важных переговоров между президентами двух великих держав - СССР и США. Однако русская мафия, пустившая корни в Америке, ставит проведение столь важного саммита под угрозу. Тогда, временно объединившись в борьбе с преступными элементами, спецслужбы обоих государств - КГБ и ЦРУ - отправляют своих лучших агентов Федора Соколова и Мэри Стар на Брайтон-Бич. Именно там скрывается главный мафиози...
Доп. информация: - В фильме на Арбате Павел Смеян поёт песню «Выть, пить, жить» из альбома «Апостол # 1»[1].
- Во время сцен с полковником Петренко звучит мелодия песни «Мгновения» из телефильма «Семнадцать мгновений весны». Также эта песня исполняется в ресторане Ланжерон в честь приезда Соколова. К тому же Фёдор напевает её в плену у мафиози.
- В фильме за Келли Макгрилл песню «Пароходы» исполняла «королева русского шансона» Любовь Успенская.
- Сцены с верблюдом снимались на площади и в холле Всемирного Торгового Центра, разрушенного во время терактов 11 сентября 2001 года.
Качество: DVDRip
Формат: AVI
Видео кодек: XviD
Аудио кодек: AC3
Видео: 720x544 (1.32:1), 29.970 fps, XviD build 47 ~1859 kbps avg, 0.16 bit/pixel
Аудио: AC3 Dolby Digital, 3/2 (L,C,R,l,r) + LFE ch, ~448.00 kbps avg, 48 kHz

MediaInfo

D:\kino\На Дерибасовской хорошая погода.avi
General
Complete name : D:\kino\На Дерибасовской хорошая погода.avi
Format : AVI
Format/Info : Audio Video Interleave
File size : 1.46 GiB
Duration : 1h 30mn
Overall bit rate : 2 315 Kbps
Writing application : VirtualDubMod 1.5.4.1 (build 2178/release)
Writing library : VirtualDubMod build 2178/release
Video #0
ID : 0
Format : MPEG-4 Visual
Format profile : Advanced [email protected]
Format settings, BVOP : Yes
Format settings, QPel : No
Format settings, GMC : No warppoints
Format settings, Matrix : Custom
Codec ID : XVID
Codec ID/Hint : XviD
Duration : 1h 30mn
Bit rate : 1 859 Kbps
Width : 720 pixels
Height : 544 pixels
Display aspect ratio : 4:3
Frame rate : 29.970 fps
Resolution : 8 bits
Colorimetry : 4:2:0
Scan type : Progressive
Bits/(Pixel*Frame) : 0.158
Stream size : 1.17 GiB (80%)
Writing library : XviD 1.2.0.dev47 (UTC 2006-11-01)
Audio #1
ID : 1
Format : AC-3
Format/Info : Audio Coding 3
Format_Settings_ModeExtension : CM (complete main)
Codec ID : 2000
Duration : 1h 30mn
Bit rate mode : Constant
Bit rate : 448 Kbps
Channel(s) : 6 channels
Channel positions : Front: L C R, Side: L R, LFE
Sampling rate : 48.0 KHz
Stream size : 289 MiB (19%)
Alignment : Aligned on interleaves
Interleave, duration : 96 ms (2.88 video frames)
Interleave, preload duration : 96 ms
Language : Russian

Скриншоты



Создавать темы 19-Май-2013 07:25

[Профиль]  [ЛС] 
Показать сообщения:    
Ответить на тему

Текущее время: 25-Сен 07:39

Часовой пояс: UTC + 5



Вы не можете начинать темы
Вы не можете отвечать на сообщения
Вы не можете редактировать свои сообщения
Вы не можете удалять свои сообщения
Вы не можете голосовать в опросах
Вы не можете прикреплять файлы к сообщениям
Вы не можете скачивать файлы