Таймлесс. Рубиновая книга / Rubinrot (Феликс Фуксштайнер) [2013 г., фантастика, фэнтези, приключения, DVDRip]

Страницы :  1, 2, 3  След.

Ответить на тему
 

atgerkin ®

Стаж: 7 лет

Сообщений: 247

Симпатии: 78

Таймлесс. Рубиновая книга / Rubinrot-- Год выпуска: 2013
Страна: Германия / Lieblingsfilm, mem-film, GeiЏend¦rfer Film- und Fernsehproduktion (GFF)
Жанр: фантастика, фэнтези, приключения
Продолжительность: 01:56:24
Перевод: Дублированный [лицензия] -Режиссер: Феликс Фуксштайнер-В ролях: Мария Эрих, Янис Нивёнер, Вероника Феррес, Уве Кокиш, Катарина Тальбах, Флориан Бартоломай, Лаура Берлин, Анна Бётхер, Сибулле Каноника, Джастин Дель Корте-Описание: Живущая в Лондоне шестнадцатилетняя Гвендолин Шеферд случайно узнает, что обладает уникальным геном путешественника во времени, который унаследовала от прапрабабушки. Теперь девушка может ежедневно переноситься в прошлое, и с каждым днем загадок становится все больше. Что такое «Тайна Двенадцати»? Кто охотится на путешественников во времени в прошлом? И почему все вокруг думают, что она обладает какой-то «магией ворона»?- -Качество: DVDRip
Формат: AVI
Видео кодек: XviD
Аудио кодек: AC3
Видео: 1906 kb/s, 720x304
Аудио: Russian / German: AC3, 384 kb/s (6 ch)

MI

General
Complete name : Tajmless.Rubinovaja.kniga.2013.D.DVDRip.IRONCLUB.avi
Format : AVI
Format/Info : Audio Video Interleave
Format profile : OpenDML
File size : 2.18 GiB
Duration : 1h 56mn
Overall bit rate : 2 681 Kbps
Movie name : Tajmless.Rubinovaja.kniga.2013.D.DVDRip.IRONCLUB
Director : IRONCLUB
Genre : Fantasy | Sci-Fi
Writing application : VirtualDubMod 1.5.10.2 (build 2540/release)
Original source form/Name : Movie
Copyright : http://ironclub.tv/
Video
ID : 0
Format : MPEG-4 Visual
Format profile : Advanced [email protected]
Format settings, BVOP : 2
Format settings, QPel : No
Format settings, GMC : No warppoints
Format settings, Matrix : Custom
Codec ID : XVID
Codec ID/Hint : XviD
Duration : 1h 56mn
Bit rate : 1 895 Kbps
Width : 720 pixels
Height : 304 pixels
Display aspect ratio : 2.35:1
Frame rate : 25.000 fps
Color space : YUV
Chroma subsampling : 4:2:0
Bit depth : 8 bits
Scan type : Progressive
Compression mode : Lossy
Bits/(Pixel*Frame) : 0.346
Stream size : 1.54 GiB (71%)
Writing library : XviD 64
Audio #1
ID : 1
Format : AC-3
Format/Info : Audio Coding 3
Mode extension : CM (complete main)
Codec ID : 2000
Duration : 1h 56mn
Bit rate mode : Constant
Bit rate : 384 Kbps
Channel(s) : 6 channels
Channel positions : Front: L C R, Side: L R, LFE
Sampling rate : 48.0 KHz
Bit depth : 16 bits
Compression mode : Lossy
Delay relative to video : 1s 750ms
Stream size : 320 MiB (14%)
Alignment : Split accross interleaves
Interleave, duration : 40 ms (1.00 video frame)
Interleave, preload duration : 500 ms
Audio #2
ID : 2
Format : AC-3
Format/Info : Audio Coding 3
Mode extension : CM (complete main)
Codec ID : 2000
Duration : 1h 56mn
Bit rate mode : Constant
Bit rate : 384 Kbps
Channel(s) : 6 channels
Channel positions : Front: L C R, Side: L R, LFE
Sampling rate : 48.0 KHz
Bit depth : 16 bits
Compression mode : Lossy
Delay relative to video : 1s 750ms
Stream size : 320 MiB (14%)
Alignment : Split accross interleaves
Interleave, duration : 40 ms (1.00 video frame)
Interleave, preload duration : 500 ms

Скриншоты








Последний раз редактировалось: atgerkin (2013-05-20 17:23), всего редактировалось 3 раз(а)

Создавать темы 20-Май-2013 12:54

[Профиль]  [ЛС] 

Sunny

Стаж: 4 года 9 месяцев

Сообщений: 18

Классный фильм, спасибо!

Создавать темы 21-Май-2013 00:12

[Профиль]  [ЛС] 

sharp_ssb

Стаж: 5 лет 3 месяца

Сообщений: 43

плохой фильм. я ожидал больщего. по моему у фильма есть продолжение, иначе конец ваще отстой.

Создавать темы 22-Май-2013 17:33

[Профиль]  [ЛС] 

PaXa

Стаж: 5 лет 10 месяцев

Сообщений: 40

Симпатии: 2

плохой фильм. я ожидал больщего. по моему у фильма есть продолжение, иначе конец ваще отстой.
гамницо? качать получается не стоит? так ведь?
ладно, а озвучка как , а качество ?

Создавать темы 22-Май-2013 20:21

[Профиль]  [ЛС] 

sharp_ssb

Стаж: 5 лет 3 месяца

Сообщений: 43

качество, звук, озвучка норм. хорошая актерская игра, главная героиня поста класс но сюжет отстой.

Создавать темы 22-Май-2013 22:36

[Профиль]  [ЛС] 

Sunnat1999

Стаж: 4 года 9 месяцев

Сообщений: 756

Симпатии: 416

плохой фильм. я ожидал больщего. по моему у фильма есть продолжение, иначе конец ваще отстой.
«Таймлесс. Рубиновая книга» — первый из трилогии фильмов о шестнадцатилетней девочке Гвендолин Шеферд, экранизация одноимённого романа Керстин Гир, переведённой на 50 языков и ставшей бестселлером во многих странах.
12 апреля 2013 года Феликс Фуксштайнер заявил, что планируется продолжение, если у первого фильма будет 500 тыс. зрителей.Но если фильм не наберёт в сборах больше 1000000 то фильма следующего не будет.
Википедия

Создавать темы 23-Май-2013 05:56

[Профиль]  [ЛС] 

wink

Стаж: 5 лет 2 месяца

Сообщений: 10

Симпатии: 1

плохой фильм. я ожидал больщего. по моему у фильма есть продолжение, иначе конец ваще отстой.
+1. Сюжет не впечатлил. оценка 4.5 из 10

Создавать темы 23-Май-2013 19:13

[Профиль]  [ЛС] 

Bloodman

Стаж: 4 года 11 месяцев

Сообщений: 28

Симпатии: 3

Только у меня ощущение, что у фильма есть продолжение? Не?

Создавать темы 23-Май-2013 23:51

[Профиль]  [ЛС] 

runa70

Стаж: 5 лет 6 месяцев

Сообщений: 1

фильм класс! спасибо! ждём продолжения.

Создавать темы 24-Май-2013 00:48

[Профиль]  [ЛС] 

dilshod5254

Стаж: 6 лет 8 месяцев

Сообщений: 106

Симпатии: 14

фильм класс! спасибо! ждём продолжения.
да что тут классного. даже с безлимитним трафиком качать жалко.

Создавать темы 24-Май-2013 17:04

[Профиль]  [ЛС] 

madik

Стаж: 5 лет 3 месяца

Сообщений: 89

Симпатии: 5

Прикольный фильмец, будет ли продолжение?

Создавать темы 28-Май-2013 09:30

[Профиль]  [ЛС] 

Alinea67

Стаж: 5 лет 2 месяца

Сообщений: 57

Симпатии: 16

Всем советую этот релиз, золотая коллекция

Создавать темы 31-Май-2013 01:51

[Профиль]  [ЛС] 

Nichkhun

Стаж: 5 лет 3 месяца

Сообщений: 99

Симпатии: 2

Мне фильм понравился=)да и книга интересная.

Создавать темы 01-Июн-2013 21:12

[Профиль]  [ЛС] 

alex_anis

Стаж: 4 года 10 месяцев

Сообщений: 60

Симпатии: 1

Фильм хороший только я не понял причём тут книга?

Создавать темы 02-Июн-2013 16:41

[Профиль]  [ЛС] 

SNIL

Стаж: 5 лет 11 месяцев

Сообщений: 2624

Симпатии: 341

alex_anis,
http://tas-ix.net/viewtopic.php?t=71183
http://tas-ix.net/viewtopic.php?t=71198
http://tas-ix.net/viewtopic.php?t=71199

Создавать темы 03-Июн-2013 07:27

[Профиль]  [ЛС] 
Показать сообщения:    
Ответить на тему

Текущее время: 11-Дек 10:48

Часовой пояс: UTC + 5



Вы не можете начинать темы
Вы не можете отвечать на сообщения
Вы не можете редактировать свои сообщения
Вы не можете удалять свои сообщения
Вы не можете голосовать в опросах
Вы не можете прикреплять файлы к сообщениям
Вы не можете скачивать файлы