Сомнамбула (Алексей Смирнов) [2012, триллер, драма, DVDRip-AVC] [Лицензия]

Ответить на тему
 

Suxrob89 ®

Стаж: 7 лет 1 месяц

Сообщений: 933

Симпатии: 564

-Сомнамбула / Somnambula-«Так вот в чём твой секрет...»- Год выпуска: 2012
Страна: Россия
Студия: LeRêve
Жанр: триллер, драма
Продолжительность: 01:17:59
Оригинальная дорожка: русская [Лицензия]
Русские субтитры: нет-Режиссер: Алексей Смирнов / Aleksei Smirnov-В ролях: Сергей Апрельский, Андрей Дементьев, Мария Ясная, Александр Златопольский, Марина Гапченко, Георгий Колтушкин, Сергей Ковалёв, Николай Михайлов, Вера Сибирёва, Мария Ясная-Описание:Фильм основан на истории, произошедшей в интернате для детей-сирот в Воронежской области, куда в 1993 году поступил семилетний Андрей Яковлев. Внимание всего интерната к мальчику приковали странные события, которые происходили с ним почти каждую ночь. Утром на теле мальчика появлялись ссадины и царапины. Охрана патрулировала корпус каждый час, ночные дежурные не сводили с мальчика глаз, но так ничего и не выяснили. 3 августа 1993 года в спальнях интерната установили камеры видеонаблюдения. То, что запечатлели камеры, шокировало сотрудников интерната и привлекло внимание спецслужб. С виду обычный ребенок, обладающий множеством талантов и перспектив на будущее, поневоле создал огромный ажиотаж вокруг себя, а некоторые факты из его биографии были засекречены. В основу фильма легли секретные файлы, кадры камер видеонаблюдения, датированные 1993 годом, а также свидетельства очевидцев.- -Качество: DVDRip-AVC
Формат видео: MKV
Видео кодек: x264
Аудио кодек: AC3
Видео: AVC / [email protected] / 2 pass / 25,000 fps / [email protected] (16:9) / 2230 kbps / 0.215
Аудио: AC3 / 5.1 ch / 448 kbps / Русский original, R5
Субтитры: нет-

Дополнительно о фильме:

Знаете ли вы, что...

Технические детали съёмки:

Log x264:

x264 [info]: frame I:655 Avg QP:15.25 size: 44812
x264 [info]: frame P:27752 Avg QP:17.61 size: 20927
x264 [info]: frame B:88588 Avg QP:19.06 size: 7828

MediaInfo:

Общее
Уникальный идентификатор : 210096943173164363269124117425304447835 (0x9E0F330C6978BE74917748A342A92B5B)
Полное имя : F:Somnambula.2012.DVDRip.AVC(Killbrain).mkv
Формат : Matroska
Версия формата : Version 4 / Version 2
Размер файла : 1,46 Гбайт
Продолжительность : 1 ч. 17 м.
Общий поток : 2678 Кбит/сек
Название фильма : Somnambula (2012) by Killbrain
Дата кодирования : UTC 2013-05-17 15:05:05
Программа кодирования : mkvmerge v6.2.0 ('Promised Land') built on Apr 28 2013 12:22:01
Библиотека кодирования : libebml v1.3.0 + libmatroska v1.4.0
Видео
Идентификатор : 1
Формат : AVC
Формат/Информация : Advanced Video Codec
Профиль формата : [email protected]
Параметр CABAC формата : Да
Параметр ReFrames формата : 12 кадров
Идентификатор кодека : V_MPEG4/ISO/AVC
Продолжительность : 1 ч. 17 м.
Битрейт : 2230 Кбит/сек
Ширина : 720 пикселей
Высота : 576 пикселей
Соотношение сторон : 16:9
Режим частоты кадров : Постоянный
Частота кадров : 25,000 кадров/сек
Стандарт вещания : PAL
Цветовое пространство : YUV
Субдискретизация насыщенности : 4:2:0
Битовая глубина : 8 бит
Тип развёртки : Прогрессивная
Бит/(Пиксели*Кадры) : 0.215
Размер потока : 1,19 Гбайт (81%)
Заголовок : Somnambula (2012)
Библиотека кодирования : x264 core 132 r2310 76a5c3a
Настройки программы : cabac=1 / ref=12 / deblock=1:-2:-2 / analyse=0x3:0x113 / me=umh / subme=11 / psy=1 / psy_rd=1.00:0.15 / mixed_ref=1 / me_range=16 / chroma_me=1 / trellis=2 / 8x8dct=1 / cqm=0 / deadzone=21,11 / fast_pskip=0 / chroma_qp_offset=-3 / threads=3 / lookahead_threads=1 / sliced_threads=0 / nr=0 / decimate=0 / interlaced=0 / bluray_compat=0 / constrained_intra=0 / bframes=9 / b_pyramid=2 / b_adapt=2 / b_bias=0 / direct=3 / weightb=1 / open_gop=0 / weightp=2 / keyint=250 / keyint_min=25 / scenecut=40 / intra_refresh=0 / rc_lookahead=60 / rc=2pass / mbtree=0 / bitrate=2230 / ratetol=1.0 / qcomp=0.70 / qpmin=0 / qpmax=69 / qpstep=4 / cplxblur=20.0 / qblur=0.5 / vbv_maxrate=40000 / vbv_bufsize=40000 / nal_hrd=none / ip_ratio=1.40 / pb_ratio=1.30 / aq=1:0.90
Язык : Russian
Default : Да
Forced : Нет
Аудио
Идентификатор : 2
Формат : AC-3
Формат/Информация : Audio Coding 3
Расширение режима : CM (complete main)
Параметр Endianness формата : Big
Идентификатор кодека : A_AC3
Продолжительность : 1 ч. 17 м.
Вид битрейта : Постоянный
Битрейт : 448 Кбит/сек
Каналы : 6 каналов
Расположение каналов : Front: L C R, Side: L R, LFE
Частота : 48,0 КГц
Битовая глубина : 16 бит
Метод сжатия : С потерями
Размер потока : 250 Мбайт (17%)
Заголовок : AC3 / 5.1 ch / 448 kbps / Русский original, DVD R5
Язык : Russian
Default : Да
Forced : Нет

Скриншот c названием фильма

Скриншоты:




Немного рецензий с Кинопоиска.Ру:





Последний раз редактировалось: Suxrob89 (2013-12-12 14:03), всего редактировалось 2 раз(а)

Создавать темы 21-Май-2013 05:48

[Профиль]  [ЛС] 

Трикс

Стаж: 6 лет 8 месяцев

Сообщений: 17

Написано 7 сидов, но ни с одного не качает(

Создавать темы 23-Авг-2013 11:25

[Профиль]  [ЛС] 

Трикс

Стаж: 6 лет 8 месяцев

Сообщений: 17

Сегодня ровно месяц, как я качаю этот фильм и скачала только 76 % ! В статистике 13 сидов, и ни с одного нет отдачи. Как позвать скачавших?

Создавать темы 23-Сен-2013 10:52

[Профиль]  [ЛС] 

star__scrim

Стаж: 7 лет 7 месяцев

Сообщений: 41

Сегодня ровно месяц, как я качаю этот фильм и скачала только 76 % ! В статистике 13 сидов, и ни с одного нет отдачи. Как позвать скачавших?
Фильм довольно унылый, страшных моментов - 0, халтурный сюжет, слабая игра некоторых актеров - зачем вам это?

Создавать темы 23-Сен-2013 11:19

[Профиль]  [ЛС] 

Трикс

Стаж: 6 лет 8 месяцев

Сообщений: 17

Сегодня ровно месяц, как я качаю этот фильм и скачала только 76 % ! В статистике 13 сидов, и ни с одного нет отдачи. Как позвать скачавших?
Фильм довольно унылый, страшных моментов - 0, халтурный сюжет, слабая игра некоторых актеров - зачем вам это?
да уже из принципа качаю)) месяца жалко)

Создавать темы 23-Сен-2013 11:54

[Профиль]  [ЛС] 
Показать сообщения:    
Ответить на тему

Текущее время: 20-Сен 09:01

Часовой пояс: UTC + 5



Вы не можете начинать темы
Вы не можете отвечать на сообщения
Вы не можете редактировать свои сообщения
Вы не можете удалять свои сообщения
Вы не можете голосовать в опросах
Вы не можете прикреплять файлы к сообщениям
Вы не можете скачивать файлы