1408 [Режиссёрская версия] / 1408 [Director's Cut] (Микаэль Хофстрём) [2007 г., ужасы, триллер, BDRemux]

Ответить на тему
 

DMiTRY ®

Стаж: 6 лет 4 месяца

Сообщений: 649

Симпатии: 28

1408 [Режиссёрская версия] / 1408 [Director's Cut]-- -Год выпуска: 2007
Страна: США
Жанр: ужасы, триллер
Продолжительность: 01:52:26
Перевод: Профессиональный (полное дублирование)-Режиссер: Микаэль Хофстрём-В ролях: Джон Кьюсак, Сэмюэл Л. Джексон, Пол Бирчард, Марго Лейкестер, Уолтер Льюис, Эрик Мейерс, Дэвид Николсон, Холли Хэйес, Александра Силбер, Йохан Урб-Описание: Известный писатель Майк Энслин, сочиняющий свои романы в жанре «ужасы», пишет очередную книгу о необычных явлениях и полтергейсте в отелях. Не верящий в существование загробной жизни, Энслин решает поселиться в печально известном номере 1408 гостиницы «Дельфин», который пустует многие годы: по слухам, там обитают привидения. Невзирая на предупреждения старшего менеджера мистера Джеральда Олина о грозящей опасности, упрямец настаивает на своем, даже не предполагая, каким кошмаром обернется предстоящая ночь…-Качество: BDRemux
Формат: m2ts-Видео кодек: H.264
Аудио кодек: DTS-Видео: VC-1, 1920x1080, ~ 22,2 Мбит/сек, 19,181 fps
Аудио: DTS 6 ch, 1510 кб/с, 48000 Hz (Русский-дублированный)-

Скриншоты



Медиаинфо

Общее
Идентификатор : 1 (0x1)
Полное имя : 1408.m2ts
Формат : BDAV
Формат/Информация : Blu-ray Video
Размер файла : 19,4 Гбайт
Продолжительность : 1 ч. 52 м.
Общий поток : 24,7 Мбит/сек
Максимальный общий битрейт : 35,5 Мбит/сек
Видео
Идентификатор : 4113 (0x1011)
Идентификатор меню : 1 (0x1)
Формат : VC-1
Профиль формата : [email protected]
Идентификатор кодека : 234
Продолжительность : 1 ч. 52 м.
Битрейт : 22,2 Мбит/сек
Ширина : 1920 пикселей
Высота : 1080 пикселей
Соотношение сторон : 16:9
Частота кадров : 19,181 кадров/сек
Субдискретизация насыщенности : 4:2:0
Битовая глубина : 8 бит
Тип развёртки : Прогрессивная
Порядок развёртки : 2:3 Pulldown
Метод сжатия : С потерями
Бит/(Пиксели*Кадры) : 0.559
Размер потока : 17,5 Гбайт (90%)
Аудио
Идентификатор : 4352 (0x1100)
Идентификатор меню : 1 (0x1)
Формат : DTS
Формат/Информация : Digital Theater Systems
Идентификатор кодека : 130
Продолжительность : 1 ч. 52 м.
Вид битрейта : Постоянный
Битрейт : 1510 Кбит/сек
Каналы : 6 каналов
Расположение каналов : Front: L C R, Side: L R, LFE
Частота : 48,0 КГц
Битовая глубина : 24 бит
Метод сжатия : С потерями
Размер потока : 1,19 Гбайт (6%)

Создавать темы 21-Май-2013 13:40

[Профиль]  [ЛС] 

АЗИЗ 84

Стаж: 5 лет 5 месяцев

Сообщений: 34

хороший фильм спасибо DMiTRY

Создавать темы 28-Май-2013 22:08

[Профиль]  [ЛС] 

АЗИЗ 84

Стаж: 5 лет 5 месяцев

Сообщений: 34

DMiTRY пожалуста вернитесь на раздачу

Создавать темы 08-Июн-2013 21:14

[Профиль]  [ЛС] 

АЗИЗ 84

Стаж: 5 лет 5 месяцев

Сообщений: 34

ау сид куда пропали вернитесь на раздачу

Создавать темы 24-Июн-2013 07:30

[Профиль]  [ЛС] 

ТимКа

Стаж: 5 лет 8 месяцев

Сообщений: 80

А как понять [Режиссёрская версия] mm

_________________
Подпись отключена за нарушение правил форума

Создавать темы 12-Июл-2013 14:17

[Профиль]  [ЛС] 

DMiTRY ®

Стаж: 6 лет 4 месяца

Сообщений: 649

Симпатии: 28

Встал на раздачу,пока что частично. Скоро вернусь с новыми релизами и новой скоростью.

Создавать темы 12-Июл-2013 14:20

[Профиль]  [ЛС] 

KIRUSH

Стаж: 4 года 6 месяцев

Сообщений: 10

асинхрон звука и картинки на 02 секунды

Создавать темы 10-Авг-2013 19:03

[Профиль]  [ЛС] 

DMiTRY ®

Стаж: 6 лет 4 месяца

Сообщений: 649

Симпатии: 28

асинхрон звука и картинки на 02 секунды
рассинхрон на самом деле есть,да. Больше фильмов с рассинхроном заливать не буду.

Создавать темы 11-Авг-2013 18:17

[Профиль]  [ЛС] 

KIRUSH

Стаж: 4 года 6 месяцев

Сообщений: 10

асинхрон звука и картинки на 02 секунды
рассинхрон на самом деле есть,да. Больше фильмов с рассинхроном заливать не буду.
обычно в BDRemux бывает несколько аудио дорог, можно было все оставить может что и совпало бы или наложить соответствующую по времени если есть..

Создавать темы 21-Авг-2013 07:51

[Профиль]  [ЛС] 

DMiTRY ®

Стаж: 6 лет 4 месяца

Сообщений: 649

Симпатии: 28

асинхрон звука и картинки на 02 секунды
рассинхрон на самом деле есть,да. Больше фильмов с рассинхроном заливать не буду.
обычно в BDRemux бывает несколько аудио дорог, можно было все оставить может что и совпало бы или наложить соответствующую по времени если есть..
ремукс был скачен уже с 1-ой аудиодорожкой.

Создавать темы 21-Авг-2013 16:19

[Профиль]  [ЛС] 

KDM

Стаж: 5 лет 8 месяцев

Сообщений: 14

Симпатии: 1

асинхрон звука и картинки на 02 секунды
рассинхрон на самом деле есть,да. Больше фильмов с рассинхроном заливать не буду.
ничего страшного, за не имением иного выкладывайте, с удовольствием скачаем
кому надо тот спокойно исправит сдвиг

Создавать темы 21-Авг-2013 19:16

[Профиль]  [ЛС] 

pashahan

Стаж: 5 лет 1 месяц

Сообщений: 8

Симпатии: 1

здравствуйте Дмитрий! дайти раздачу! плиз!

Создавать темы 08-Янв-2015 14:28

[Профиль]  [ЛС] 

Serj-kill

Стаж: 1 год 1 месяц

Сообщений: 56

Симпатии: 2

это не режисёрская версия!!!

Создавать темы 25-Июл-2017 15:28

[Профиль]  [ЛС] 
Показать сообщения:    
Ответить на тему

Текущее время: 21-Сен 15:41

Часовой пояс: UTC + 5



Вы не можете начинать темы
Вы не можете отвечать на сообщения
Вы не можете редактировать свои сообщения
Вы не можете удалять свои сообщения
Вы не можете голосовать в опросах
Вы не можете прикреплять файлы к сообщениям
Вы не можете скачивать файлы