Кинг Конг / KING KONG (Питер Джексон) [2005 г., фантастический экшн, приключения, BDRemux]

Страницы :  1, 2  След.

Ответить на тему
 

DMiTRY ®

Стаж: 6 лет 3 месяца

Сообщений: 649

Симпатии: 28

Кинг Конг / KING KONG-- -Год выпуска: 2005
Страна: США, Новая Зеландия
Жанр: фантастический экшн, приключения
Продолжительность: 03:07:20
Перевод: Профессиональный (полное дублирование)-Режиссер: Питер Джексон-В ролях: Наоми Уоттс, Джек Блэк, Эдриен Броуди, Энди Серкис, Джейми Белл, Кайл Чэндлер, Лобо Чан, Томас Кречман, Ивэн Парк, Колин Хэнкс-Описание: Съемочная группа во главе с режиссером Карлом Дэнамом (Джек Блэк) отправляется на таинственный остров недалеко от Суматры, на который никогда не ступала нога человека. Именно там Карл собирает- ся снимать свой новый фильм, при- гласив на главную роль начинающую актрису Энн Дерроу (Наоми Уотс).
На острове посреди океана съемочную группу ожидает не только потрясающие красотой пейзажи, но и невероятные приключения. Оказывается, что остров сохранил не только девственную природу, но доисторических животных, среди которых динозавры и огромная горилла по имени Кинг. Именно в лапы этого животного попадает юная Энн. Съемочная группа, включая влюбленного в Энн сценариста Джека Дрисколла (Эдриан Броуди), пытается спасти девушку из лап Кинг Конга, но удастся ли им не затеряться в джунглях острова и выбраться живыми?-Качество: BDRemux
Формат: MKV-Видео кодек: MPEG-4
Аудио кодек: AC3-Видео: MPEG4 Video, x264, 1920x1080, 23.98fps, 12.0 Mbps
Аудио: Dolby AC3, 48000Hz, 6ch, 640 Kbps (Русский-дублированный)-

Скриншоты



Медиаинфо

General
Unique ID : 230787304139927338790789671665693208982 (0xADA0049A8476FEF595F4B7AEA7ADB196)
Complete name :D:Видео-HD
Format : Matroska
Format version : Version 2
File size : 16.5 GiB
Duration : 3h 7mn
Overall bit rate mode : Variable
Overall bit rate : 12.6 Mbps
Encoded date : UTC 2011-02-11 08:49:59
Writing application : DVDFab
Writing library : libebml v0.7.8 + libmatroska v0.8.1
Video
ID : 1
Format : AVC
Format/Info : Advanced Video Codec
Format profile : [email protected]
Format settings, CABAC : Yes
Format settings, ReFrames : 3 frames
Codec ID : V_MPEG4/ISO/AVC
Duration : 3h 7mn
Bit rate mode : Variable
Bit rate : 12.0 Mbps
Maximum bit rate : 25.0 Mbps
Width : 1 920 pixels
Height : 1 080 pixels
Display aspect ratio : 16:9
Frame rate : 23.976 fps
Color space : YUV
Chroma subsampling : 4:2:0
Bit depth : 8 bits
Scan type : Progressive
Bits/(Pixel*Frame) : 0.241
Stream size : 15.4 GiB (93%)
Writing library : x264 core 65 r999M cc51047
Encoding settings : cabac=1 / ref=3 / deblock=1:0:0 / analyse=0x3:0x113 / me=umh / subme=6 / psy_rd=1.0:0.0 / mixed_ref=1 / me_range=16 / chroma_me=1 / trellis=0 / 8x8dct=1 / cqm=0 / deadzone=21,11 / chroma_qp_offset=-2 / threads=6 / nr=0 / decimate=1 / mbaff=0 / bframes=3 / b_pyramid=0 / b_adapt=1 / b_bias=0 / direct=3 / wpredb=1 / keyint=24 / keyint_min=1 / scenecut=40(pre) / rc=2pass / bitrate=12000 / ratetol=1.0 / qcomp=0.50 / qpmin=10 / qpmax=51 / qpstep=4 / cplxblur=20.0 / qblur=0.5 / vbv_maxrate=25000 / vbv_bufsize=15000 / ip_ratio=1.10 / pb_ratio=1.10 / aq=1:1.00
Default : Yes
Forced : No
Audio
ID : 2
Format : AC-3
Format/Info : Audio Coding 3
Mode extension : CM (complete main)
Codec ID : A_AC3
Duration : 3h 7mn
Bit rate mode : Constant
Bit rate : 640 Kbps
Channel(s) : 6 channels
Channel positions : Front: L C R, Side: L R, LFE
Sampling rate : 48.0 KHz
Bit depth : 16 bits
Compression mode : Lossy
Stream size : 858 MiB (5%)
Language : Russian
Default : Yes
Forced : No
Menu
00:00:00.000 : en:(01)00:00:00:000
00:14:25.114 : en:(02)00:14:25:114
00:29:44.866 : en:(03)00:29:44:866
00:44:52.690 : en:(04)00:44:52:690
00:59:57.385 : en:(05)00:59:57:385
01:14:54.948 : en:(06)01:14:54:948
01:30:01.229 : en:(07)01:30:01:229
01:44:59.042 : en:(08)01:44:59:042
01:59:59.525 : en:(09)01:59:59:525
02:15:02.886 : en:(10)02:15:02:886
02:29:37.551 : en:(11)02:29:37:551
02:44:48.003 : en:(12)02:44:48:003
02:57:40.650 : en:(13)02:57:40:650
03:07:20.395 : en:(14)03:07:20:395

Создавать темы 21-Май-2013 13:54

[Профиль]  [ЛС] 

ASUS F5

Стаж: 5 лет 3 месяца

Сообщений: 58

Симпатии: 3

спасибо за релиз

Создавать темы 26-Май-2013 11:20

[Профиль]  [ЛС] 

ASUS F5

Стаж: 5 лет 3 месяца

Сообщений: 58

Симпатии: 3

на главе такое Сидов: 1 [ 507 KB/s ] Личеров: 5 [ 476 KB/s ] но никак не качает это что щутка?

Создавать темы 26-Май-2013 11:31

[Профиль]  [ЛС] 

DMiTRY ®

Стаж: 6 лет 3 месяца

Сообщений: 649

Симпатии: 28

на главе такое Сидов: 1 [ 507 KB/s ] Личеров: 5 [ 476 KB/s ] но никак не качает это что щутка?
нет не шутки,с меня реально качает 1 человек.

Создавать темы 26-Май-2013 11:40

[Профиль]  [ЛС] 

ASUS F5

Стаж: 5 лет 3 месяца

Сообщений: 58

Симпатии: 3

спасибо уже скорость 190 Kb/с супер скачал почти 7 giga bx

Создавать темы 27-Май-2013 07:49

[Профиль]  [ЛС] 

ASUS F5

Стаж: 5 лет 3 месяца

Сообщений: 58

Симпатии: 3

где сидер?

Создавать темы 02-Июн-2013 03:44

[Профиль]  [ЛС] 

d_radiation

Стаж: 4 года 5 месяцев

Сообщений: 7

Уважаемый сидер я уже почти неделю качаю ваш релиз. Мне еще 7% осталось докачать. Дайте мне докачать его, я встану на раздачу тем кто качает на хорошей скорости. Скорость закачки совсем никакая а то и совсем не качает.

Создавать темы 03-Июн-2013 00:22

[Профиль]  [ЛС] 

ASUS F5

Стаж: 5 лет 3 месяца

Сообщений: 58

Симпатии: 3

Уважаемый сидер я уже почти неделю качаю ваш релиз. Мне еще 7% осталось докачать. Дайте мне докачать его, я встану на раздачу тем кто качает на хорошей скорости. Скорость закачки совсем никакая а то и совсем не качает.
да правда: я тоже скачаль 93,3% осталось 6,4% но хотябы скачаль 3 человека это правила torrenta но помоему наднами хотять шутить если не так раздавайте!!! сначала скачал скорости 190Kb/с а теперь нолллллллллллллль

Создавать темы 03-Июн-2013 18:30

[Профиль]  [ЛС] 

KIRUSH

Стаж: 4 года 5 месяцев

Сообщений: 10

Уважаемый сидер я уже почти неделю качаю ваш релиз. Мне еще 7% осталось докачать. Дайте мне докачать его, я встану на раздачу тем кто качает на хорошей скорости. Скорость закачки совсем никакая а то и совсем не качает.
да правда: я тоже скачаль 93,3% осталось 6,4% но хотябы скачаль 3 человека это правила torrenta но помоему наднами хотять шутить если не так раздавайте!!! сначала скачал скорости 190Kb/с а теперь нолллллллллллллль


Последний раз редактировалось: KIRUSH (2013-06-10 18:32), всего редактировалось 1 раз

Создавать темы 04-Июн-2013 09:06

[Профиль]  [ЛС] 

DMiTRY ®

Стаж: 6 лет 3 месяца

Сообщений: 649

Симпатии: 28

Я каждый день стою на раздаче,и то что у вас не качается,это явно не мои проблемы.

Создавать темы 04-Июн-2013 10:54

[Профиль]  [ЛС] 

d_radiation

Стаж: 4 года 5 месяцев

Сообщений: 7

KIRUSH, Я сейчас раздаю Кинг Конга, но я его не докачал до конца еще, так как закачка остановилась. Сейчас у меня 93,3% и стоит на месте, так что все что скачал отдаю))

Создавать темы 04-Июн-2013 15:22

[Профиль]  [ЛС] 

KIRUSH

Стаж: 4 года 5 месяцев

Сообщений: 10

KIRUSH, Я сейчас раздаю Кинг Конга, но я его не докачал до конца еще, так как закачка остановилась. Сейчас у меня 93,3% и стоит на месте, так что все что скачал отдаю))
спасибо огромное!!!


Последний раз редактировалось: KIRUSH (2013-06-09 19:19), всего редактировалось 1 раз

Создавать темы 05-Июн-2013 00:15

[Профиль]  [ЛС] 

KIRUSH

Стаж: 4 года 5 месяцев

Сообщений: 10

асинхрон звука и картинки, приблизительно 1 секунда

Создавать темы 09-Июн-2013 19:25

[Профиль]  [ЛС] 

es63

Стаж: 6 лет 4 месяца

Сообщений: 17

асинхрон звука и картинки, приблизительно 1 секунда
факт

Создавать темы 18-Июн-2013 21:14

[Профиль]  [ЛС] 

ASUS F5

Стаж: 5 лет 3 месяца

Сообщений: 58

Симпатии: 3

асинхрон звука и картинки, приблизительно 1 секунда
факт
я по этому удалиль файл

Создавать темы 14-Июл-2013 11:42

[Профиль]  [ЛС] 
Показать сообщения:    
Ответить на тему

Текущее время: 24-Авг 10:04

Часовой пояс: UTC + 5



Вы не можете начинать темы
Вы не можете отвечать на сообщения
Вы не можете редактировать свои сообщения
Вы не можете удалять свои сообщения
Вы не можете голосовать в опросах
Вы не можете прикреплять файлы к сообщениям
Вы не можете скачивать файлы