Мышиная охота / Mousehunt (Гор Вербински/Gore Verbinski) [1997 г., Комедия, семейный, HDTVRip-AVC, 720p] (MVO) + Eng

Ответить на тему
 

Robot-IX ®

Стаж: 5 лет 6 месяцев

Сообщений: 223

Симпатии: 9

Мышиная охота / Mousehunt-- Год выпуска: 1997
Страна: США
Студия: DreamWorks SKG
Жанр: комедия, семейный, ...
Продолжительность: 01:35:23
Перевод:
-профессиональный (многоголосый,закадровый) -
Роли дублировали: Олег Куценко, Борис Шувалов, Елена Соловьева, Борис Быстров,
Александр Белявский...
Оригинальная аудиодорожка: английская-Режиссёр: Гор Вербински
Сценарий: Адам Рифкин
Продюсер: Брюс Коэн, Тони Людвиг, Алан Ричи, ...
Оператор: Фидон Папамайкл
Композитор: Алан Сильвестри-В ролях: Натан Лэйн, Ли Эванс, Вики Льюис, Мори Чайкин, Эрик Кристмас,
Майкл Джетер, Дебра Кристофферсон, Camilla Soeberg, Йен Эберкромби, Аннабелль Гурвич...-Описание:
Братья Ларс и Эрни Шмунц не придают особого значения унаследованному ими старому полуразрушенному
особняку до тех пор, пока они не узнают, что их ветхая недвижимость стоит миллионы. Но есть одна
проблема.
Чтобы продать дом, братья должны избавиться от его единственного и упрямого обитателя — маленькой,
но очень цепкой мыши. То, что поначалу кажется детской игрой, становится настоящей грандиозной битвой.-Доп. информация:
IMDb: 6,2/10
КиноПоиск: 7.623/10
MPAA:PG 0+ для любой зрительской аудитории-Качество: HDTVRip
Формат: MKV/AVC (Matroska)
Видео кодек: AVC/х264
Аудио кодек: AC3
Видео: AVC, 1280x720, 23.976 fps, ~6183 kbps avg, 0.280 bits/pixel ...
Аудио №1: Русский, AC3, 5.1 ch (L,C,R,l,r) + LFE, 48.0 KHz, 384 kbps avg | закадровый, многоголосый
Аудио №2: Английский, АС3, 5.1 ch (L,C,R,l,r) + LFE, 48.0 KHz, 384 kbps avg | Оригинал-

MediaInfo

General
Unique ID : 230341463986911028738086767230883363943 (0xAD4A26FCA67E3A9F800499745DBA7C67)
Complete name : D:\Torent\Mouse.Hunt.1997.720p.x264.Rus.Eng.mkv
Format : Matroska
Format version : Version 4 / Version 2
File size : 4.64 GiB
Duration : 1h 37mn
Overall bit rate : 6 808 Kbps
Encoded date : UTC 2013-05-22 02:29:10
Writing application : mkvmerge v6.0.0 ('Coming Up For Air') built on Jan 20 2013 09:52:00
Writing library : libebml v1.3.0 + libmatroska v1.4.0
Video
ID : 1
Format : AVC
Format/Info : Advanced Video Codec
Format profile : [email protected]
Format settings, CABAC : Yes
Format settings, ReFrames : 6 frames
Codec ID : V_MPEG4/ISO/AVC
Duration : 1h 37mn
Bit rate : 6 183 Kbps
Width : 1 280 pixels
Height : 720 pixels
Display aspect ratio : 16:9
Frame rate : 23.976 fps
Color space : YUV
Chroma subsampling : 4:2:0
Bit depth : 8 bits
Scan type : Progressive
Bits/(Pixel*Frame) : 0.280
Stream size : 4.02 GiB (87%)
Title : Mouse.Hunt.1997.HDRip.720p.rus.eng
Writing library : x264 core 54 svn-635M
Encoding settings : cabac=1 / ref=3 / deblock=1:-2:-1 / analyse=0x3:0x133 / me=umh / subme=6 / brdo=0 / mixed_ref=0 / me_range=12 / chroma_me=1 / trellis=1 / 8x8dct=1 / cqm=0 / deadzone=21,11 / chroma_qp_offset=0 / threads=2 / nr=0 / decimate=1 / mbaff=0 / bframes=3 / b_pyramid=1 / b_adapt=1 / b_bias=0 / direct=3 / wpredb=1 / bime=0 / keyint=250 / keyint_min=25 / scenecut=40(pre) / rc=2pass / bitrate=6183 / ratetol=1.0 / rceq='blurCplx^(1-qComp)' / qcomp=0.60 / qpmin=10 / qpmax=51 / qpstep=4 / cplxblur=20.0 / qblur=0.5 / ip_ratio=1.40 / pb_ratio=1.30
Language : English
Default : Yes
Forced : No
Audio #1
ID : 2
Format : AC-3
Format/Info : Audio Coding 3
Mode extension : CM (complete main)
Format settings, Endianness : Big
Codec ID : A_AC3
Duration : 1h 37mn
Bit rate mode : Constant
Bit rate : 384 Kbps
Channel(s) : 6 channels
Channel positions : Front: L C R, Side: L R, LFE
Sampling rate : 48.0 KHz
Bit depth : 16 bits
Compression mode : Lossy
Stream size : 268 MiB (6%)
Title : Ac3 ~384 kbps avg Dub (MVO)
Language : Russian
Default : Yes
Forced : No
Audio #2
ID : 3
Format : AC-3
Format/Info : Audio Coding 3
Mode extension : CM (complete main)
Format settings, Endianness : Big
Codec ID : A_AC3
Duration : 1h 37mn
Bit rate mode : Constant
Bit rate : 384 Kbps
Channel(s) : 6 channels
Channel positions : Front: L C R, Side: L R, LFE
Sampling rate : 48.0 KHz
Bit depth : 16 bits
Compression mode : Lossy
Stream size : 268 MiB (6%)
Title : Ac3 ~384 kbps avg Original
Language : English
Default : No
Forced : No

Скриншоты





Создавать темы 22-Май-2013 09:25

[Профиль]  [ЛС] 

DMiTRY

Стаж: 6 лет 5 месяцев

Сообщений: 649

Симпатии: 28

как же я люблю этот фильм.....)

Создавать темы 22-Май-2013 09:50

[Профиль]  [ЛС] 

Robot-IX ®

Стаж: 5 лет 6 месяцев

Сообщений: 223

Симпатии: 9

как же я люблю этот фильм.....)
ДА, фильм действительно замечательный.... и смотреть его можно не один раз. ))

Создавать темы 22-Май-2013 13:26

[Профиль]  [ЛС] 

Robot-IX ®

Стаж: 5 лет 6 месяцев

Сообщений: 223

Симпатии: 9

Друзя! я извиняюсь...! весь вечер проблема с обратным каналом. (Net)
если к ночи стабилизируют (провайдер) оставлю ноут на ночь!


Последний раз редактировалось: Robot-IX (2013-11-27 15:17), всего редактировалось 1 раз

Создавать темы 22-Май-2013 22:21

[Профиль]  [ЛС] 

yura_greek

Стаж: 5 лет 8 месяцев

Сообщений: 59

Симпатии: 6

Удар В Голову!!! Отличный Фильм!!!

Создавать темы 23-Май-2013 03:01

[Профиль]  [ЛС] 

Uzer5

Стаж: 6 лет 3 месяца

Сообщений: 76

Симпатии: 13

Как я обожал этот фильм!!! Ммм... Отличное кино, всем советую.

_________________
Подпись отключена за нарушение правил форума

Создавать темы 23-Май-2013 13:43

[Профиль]  [ЛС] 

Эрнест

Стаж: 5 лет 11 месяцев

Сообщений: 29

Фильм наишикарнейший! Смотреть всем!Охота началась.Качаю большое спасибо!Шедевр для меня.

Создавать темы 01-Июн-2013 00:14

[Профиль]  [ЛС] 

sarvarjons

Стаж: 4 года 8 месяцев

Сообщений: 12

Симпатии: 1

Кто знает где можно достать этот фильм на Узбекском языке ?

Создавать темы 05-Июн-2013 22:24

[Профиль]  [ЛС] 

Robot-IX ®

Стаж: 5 лет 6 месяцев

Сообщений: 223

Симпатии: 9

Кто знает где можно достать этот фильм на Узбекском языке ?
bn

Создавать темы 05-Июн-2013 22:32

[Профиль]  [ЛС] 

Kubaev_Muhiddin

Стаж: 6 лет 8 месяцев

Сообщений: 104

Симпатии: 34

Сидов есть а скорости нет, газу ребята

Создавать темы 08-Авг-2013 03:40

[Профиль]  [ЛС] 

криптон

Стаж: 3 года 10 месяцев

Сообщений: 3

увеличьте скорость пожалуйста. невозможно так скачивать

Создавать темы 08-Дек-2013 19:03

[Профиль]  [ЛС] 

wader69

Стаж: 5 лет 8 месяцев

Сообщений: 36

Фильм классный добрый на все времена!!!

Создавать темы 19-Ноя-2014 11:52

[Профиль]  [ЛС] 

Apollo

Стаж: 4 года 9 месяцев

Сообщений: 1

Ребята, добавьте немного скорости! Уже который день не могу ничего скачать(((

Создавать темы 25-Янв-2015 12:13

[Профиль]  [ЛС] 
Показать сообщения:    
Ответить на тему

Текущее время: 19-Окт 01:33

Часовой пояс: UTC + 5



Вы не можете начинать темы
Вы не можете отвечать на сообщения
Вы не можете редактировать свои сообщения
Вы не можете удалять свои сообщения
Вы не можете голосовать в опросах
Вы не можете прикреплять файлы к сообщениям
Вы не можете скачивать файлы