День, когда Земля остановилась / The Day the Earth Stood Still (Скотт Дерриксон) [2008 г., Драма, Триллер, Фантастика, HDTVRip-AVC]

Ответить на тему
 

Nosferatu ®

Стаж: 4 года 5 месяцев

Сообщений: 79

Симпатии: 5

День, когда Земля остановилась (HD 720p) /
The Day the Earth Stood Still
- -
Год выпуска: 2008
Страна: США
Жанр: Драма, Триллер, Фантастика
Продолжительность: 01:43:35
Перевод: Профессиональный (полное дублирование)
Режиссер: Скотт Дерриксон
В ролях:
Джейден Смит, Джеймс Хонг, Дженнифер Коннелли, Джон Клиз, Джон Ротмен, Джон Хэмм, Кайл Чандлер, Киану Ривз, Кэти Бейтс, Роберт Нэппер-Описание:
Об инопланетянине, который прибыл на нашу планету с предупреждением: если не будут прекращены войны и разрушения, Земля будет уничтожена извне, поскольку представляет угрозу для остальной Вселенной!-Доп. информация: $80 000 000-Качество: HDTVRip-AVC
Формат: MKV
Видео кодек: H.264
Видео: MPEG4 Video (H264) 4 531 Kbps 1280x544 23.976fps [Video]
Аудио кодек: AC3
Audio #1 AC-3 48.0 KHz 6ch 11 509 Kbps English
Audio #2 AC-3 48.0 KHz 6ch 384 Kbps Russian

Text # UTF-8 English

Media Info

Format : Matroska
Format version : Version 1
File size : 4.65 GiB
Duration : 1h 43mn
Overall bit rate : 6 428 Kbps
Encoded date : UTC 2009-04-23 18:10:23
Writing application : mkvmerge v2.5.3 ('Boogie') built on Mar 7 2009 15:00:41
Writing library : libebml v0.7.7 + libmatroska v0.8.1
Video
ID : 2
Format : AVC
Format/Info : Advanced Video Codec
Format profile : [email protected]
Format settings, CABAC : Yes
Format settings, ReFrames : 5 frames
Codec ID : V_MPEG4/ISO/AVC
Duration : 1h 43mn
Bit rate : 4 531 Kbps
Width : 1 280 pixels
Height : 544 pixels
Display aspect ratio : 2.35:1
Frame rate mode : Constant
Frame rate : 23.976 fps
Color space : YUV
Chroma subsampling : 4:2:0
Bit depth : 8 bits
Scan type : Progressive
Bits/(Pixel*Frame) : 0.271
Stream size : 3.19 GiB (69%)
Writing library : x264 core 65 r999M cc51047
Encoding settings : cabac=1 / ref=5 / deblock=1:0:0 / analyse=0x3:0x113 / me=umh / subme=8 / psy_rd=1.0:0.0 / mixed_ref=1 / me_range=16 / chroma_me=1 / trellis=1 / 8x8dct=1 / cqm=0 / deadzone=21,11 / chroma_qp_offset=-2 / threads=6 / nr=0 / decimate=1 / mbaff=0 / bframes=3 / b_pyramid=1 / b_adapt=1 / b_bias=0 / direct=3 / wpredb=1 / keyint=250 / keyint_min=25 / scenecut=40(pre) / rc=2pass / bitrate=4531 / ratetol=1.0 / qcomp=0.60 / qpmin=10 / qpmax=51 / qpstep=4 / cplxblur=20.0 / qblur=0.5 / ip_ratio=1.40 / pb_ratio=1.30 / aq=1:1.00
Language : English
Default : Yes
Forced : No
Audio #1
ID : 1
Format : DTS
Format/Info : Digital Theater Systems
Mode : 16
Format settings, Endianness : Big
Codec ID : A_DTS
Duration : 1h 43mn
Bit rate mode : Constant
Bit rate : 1 509 Kbps
Channel(s) : 6 channels
Channel positions : Front: L C R, Side: L R, LFE
Sampling rate : 48.0 KHz
Bit depth : 24 bits
Compression mode : Lossy
Stream size : 1.09 GiB (23%)
Default : No
Forced : No
Audio #2
ID : 3
Format : AC-3
Format/Info : Audio Coding 3
Mode extension : CM (complete main)
Format settings, Endianness : Big
Codec ID : A_AC3
Duration : 1h 43mn
Bit rate mode : Constant
Bit rate : 384 Kbps
Channel(s) : 6 channels
Channel positions : Front: L C R, Side: L R, LFE
Sampling rate : 48.0 KHz
Bit depth : 16 bits
Compression mode : Lossy
Stream size : 285 MiB (6%)
Title : AC3 5.1, 384 kbps
Language : Russian
Default : Yes
Forced : No
Text
ID : 4
Format : UTF-8
Codec ID : S_TEXT/UTF8
Codec ID/Info : UTF-8 Plain Text
Language : English
Default : Yes
Forced : No

Скриншоты














Приятного просмотра! az


Последний раз редактировалось: Nosferatu (2013-05-23 23:30), всего редактировалось 3 раз(а)

Создавать темы 22-Май-2013 22:53

[Профиль]  [ЛС] 

Топик был перенесен из форума Зарубежное кино в форум Зарубежное кино

mp1988

Создавать темы 23-Май-2013 14:37

 
Показать сообщения:    
Ответить на тему

Текущее время: 20-Авг 22:32

Часовой пояс: UTC + 5



Вы не можете начинать темы
Вы не можете отвечать на сообщения
Вы не можете редактировать свои сообщения
Вы не можете удалять свои сообщения
Вы не можете голосовать в опросах
Вы не можете прикреплять файлы к сообщениям
Вы не можете скачивать файлы