Создание музыки на компьютере - SONAR X [2012 г.]

Ответить на тему
 

Григорий К ®

Стаж: 4 года 11 месяцев

Сообщений: 569

Симпатии: 284

Создание музыки на компьютере - SONAR X. Быстрый старт для новичков
Производитель: SonarMUSIC
Год выпуска: 2012
Язык: русский
Видео кодек: XviD
Видео:Input Type XVID(GVC) * Input Size:1280 x 720 * Output Type:YUY2 * Output Size:1280 x 720 * FrameRate(Frame/sec):0.00 (25.00)
Аудио: SampleRate(Sample/sec):48000 * BitRate(Bit/sample):16 * Channels:2 * KBitRate(KBit/sec):192
Описание:
Обзор программы Sonar серии X на примере Sonar X1 от команды SonarMusic. Ни и естественно, согласно традиции, в процессе объяснения будет создана простая композиция.
так же в раздаче бонусом статья "Обзор Sonar X1"--

Список Уроков

- Интерфейс программы
- Браузер
- Добавление сэмплов и лупов в проект
- Аудио эффекты
- MIDI эффекты
- Виртуальные синтезаторы
- Synth Rack
- Редактирование аудиоклипов
- Редактирование лупа
- Инструменты редактирования
- Работа со слоями
- Элементы управления аудио треками
- Фильтры редактирования
- Создание автоматизации
- Запись аудио с внешнего источника
- Обработка трека эффектами
- Настройка шин
- Инспектор
- Микшерная консоль
- MIDI треки
- Запись MIDI трека
- Редактирование MIDI трека в Piano Roll
- Редактирование MIDI трека в Staff View
- Session Drummer 3
- Шаговый секвенсер
- Матрикс
- Формирование композиции
- Экспорт композиции

Скриншоты




MediaInfo

Format : AVI
Format/Info : Audio Video Interleave
File size : 432 MiB
Duration : 1h 4mn
Overall bit rate : 933 Kbps
Writing application : MEncoder SVN-r30881(20100311-gcc4.3.3)
Writing library : MPlayer
Video #0
ID : 0
Format : MPEG-4 Visual
Format profile : Advanced [email protected]
Format settings, BVOP : 2
Format settings, QPel : No
Format settings, GMC : No warppoints
Format settings, Matrix : Default (H.263)
Codec ID : XVID
Codec ID/Hint : XviD
Duration : 1h 4mn
Bit rate : 728 Kbps
Width : 1 280 pixels
Height : 720 pixels
Display aspect ratio : 16:9
Frame rate : 25.000 fps
Color space : YUV
Chroma subsampling : 4:2:0
Bit depth : 8 bits
Scan type : Progressive
Compression mode : Lossy
Bits/(Pixel*Frame) : 0.032
Stream size : 337 MiB (78%)
Writing library : XviD 1.2.1 (UTC 2008-12-04)
Audio #1
ID : 1
Format : MPEG Audio
Format version : Version 1
Format profile : Layer 3
Mode : Joint stereo
Codec ID : 55
Codec ID/Hint : MP3
Duration : 1h 4mn
Bit rate mode : Constant
Bit rate : 192 Kbps
Channel(s) : 2 channels
Sampling rate : 48.0 KHz
Compression mode : Lossy
Delay relative to video : 40ms
Stream size : 89.0 MiB (21%)
Alignment : Aligned on interleaves
Interleave, duration : 24 ms (0.60 video frame)
Interleave, preload duration : 504 ms
Mix Clinic Cakewalk Sonar X2(ENG)
Изучаем работу эффекта компрессор
Изучаем работу эффекта ревербератор
Сама программа Sonar X2 здесьПо сути ни чем не отличается от X1 кроме более стабильной работы и меньшим количеством багов)))
Изучайте, экспериментируйте и жмите "спасибо". Мне будет приятно.


Последний раз редактировалось: Григорий К (2013-05-25 23:07), всего редактировалось 2 раз(а)

Создавать темы 23-Май-2013 09:57

[Профиль]  [ЛС] 

Vudi18

Стаж: 4 года 9 месяцев

Сообщений: 117

Симпатии: 3

аааа дабстеп получится ?????

Создавать темы 23-Май-2013 10:11

[Профиль]  [ЛС] 

Григорий К ®

Стаж: 4 года 11 месяцев

Сообщений: 569

Симпатии: 284

аааа дабстеп получится ?????
И даб, и степ и куча иных жанров получится, если постараться)))
По теме, довольно подробно рассказаны и рассмотрены наиболее часто встречающиеся функции софта. В остальном, такой же видеокурс, как и все другие.

Создавать темы 23-Май-2013 13:00

[Профиль]  [ЛС] 

Erkowa

Стаж: 4 года 9 месяцев

Сообщений: 20

Григорий К, раздадача когда?

Создавать темы 23-Май-2013 13:48

[Профиль]  [ЛС] 
Показать сообщения:    
Ответить на тему

Текущее время: 21-Авг 17:15

Часовой пояс: UTC + 5



Вы не можете начинать темы
Вы не можете отвечать на сообщения
Вы не можете редактировать свои сообщения
Вы не можете удалять свои сообщения
Вы не можете голосовать в опросах
Вы не можете прикреплять файлы к сообщениям
Вы не можете скачивать файлы