Темные круги / Dark Circles (Пол Сотер / Paul Soter) [2013, США, ужасы, DVDRip] VO (den904)

Ответить на тему
 

Suxrob89 ®

Стаж: 7 лет 3 месяца

Сообщений: 933

Симпатии: 564

-Темные круги / Dark Circles- Страна: США / AfterDark Films
Жанр: ужасы
Год выпуска: 2013
Продолжительность: 01:26:21
Перевод: Одноголосый закадровый den904
Cубтитры: нет-Режиссер: Пол Сотер / Paul Soter-В ролях: Джонатон Шек, Андреа Франкл, Пелл Джеймс, Глен Уорнер, Филипп Бреннинкмейер, Эндрю Серпас Энтони, Майкл Фредерик, Дженнифер Формен, Сюзанн Северио, Бретт Бьюбэй-Описание: Молодые родители переезжают из шумного города в сельскую местность. Но на новом месте их не ждал покой. Новые хозяева дома начинают видеть ужасные видения, вызванные их ребенком. Похоже домом владеют темные сверхъестественные силы, которые пробудились от долгой спячки…- -Качество видео: DVDRip
Формат видео: AVI
Видео: 720x304 (2.37:1), 23.976 fps, XviD build 50 ~1801 kbps avg, 0.34 bit/pixel
Аудио: 48 kHz, AC3 Dolby Digital, 3/2 (L,C,R,l,r) + LFE ch, ~448 kbps

MediaInfo

Формат : AVI
Формат/Информация : Audio Video Interleave
Размер файла : 1,37 Гбайт
Продолжительность : 1 ч. 26 м.
Общий поток : 2259 Кбит/сек
Программа кодирования : VirtualDubMod 1.5.10.2 (build 2540/release)
Библиотека кодирования : VirtualDubMod build 2540/release
Видео
Идентификатор : 0
Формат : MPEG-4 Visual
Профиль формата : Advanced [email protected]
Параметр BVOP формата : 2
Параметр QPel формата : Нет
Параметр GMC формата : Без точки перехода
Параметр матрицы формата : Default (H.263)
Идентификатор кодека : XVID
Идентификатор кодека/Подсказка : XviD
Продолжительность : 1 ч. 26 м.
Битрейт : 1801 Кбит/сек
Ширина : 720 пикселей
Высота : 304 пикселя
Соотношение сторон : 2,35:1
Частота кадров : 23,976 кадра/сек
Цветовое пространство : YUV
Субдискретизация насыщенности : 4:2:0
Битовая глубина : 8 бит
Тип развёртки : Прогрессивная
Метод сжатия : С потерями
Бит/(Пиксели*Кадры) : 0.343
Размер потока : 1,09 Гбайт (80%)
Библиотека кодирования : XviD 1.2.1 (UTC 2008-12-04)
Аудио
Идентификатор : 1
Формат : AC-3
Формат/Информация : Audio Coding 3
Расширение режима : CM (complete main)
Параметр Endianness формата : Big
Идентификатор кодека : 2000
Продолжительность : 1 ч. 26 м.
Вид битрейта : Постоянный
Битрейт : 448 Кбит/сек
Каналы : 6 каналов
Расположение каналов : Front: L C R, Side: L R, LFE
Частота : 48,0 КГц
Битовая глубина : 16 бит
Метод сжатия : С потерями
Размер потока : 278 Мбайт (20%)
Выравнивание : Разделение по промежуткам
Продолжительность промежутка : 42 мс. (1,00 видеокадр)
Время предзагрузки промежутка : 500 мс.

Скриншот c названием фильма

Скриншоты

Создавать темы 24-Май-2013 09:42

[Профиль]  [ЛС] 

ASUS F5

Стаж: 5 лет 6 месяцев

Сообщений: 58

Симпатии: 3

Спасибо за фильм =) кто смотрел отпишитесь плиз )

Создавать темы 24-Май-2013 17:09

[Профиль]  [ЛС] 

v-i_koshe4ka

Стаж: 5 лет 1 месяц

Сообщений: 9

Реально классный фильм советую посмотреть=)

Создавать темы 03-Июн-2013 17:38

[Профиль]  [ЛС] 

Azizaaaaa

Стаж: 4 года 3 месяца

Сообщений: 55

Симпатии: 1

спасибо за фильм

Создавать темы 10-Окт-2013 17:19

[Профиль]  [ЛС] 
Показать сообщения:    
Ответить на тему

Текущее время: 23-Ноя 14:25

Часовой пояс: UTC + 5



Вы не можете начинать темы
Вы не можете отвечать на сообщения
Вы не можете редактировать свои сообщения
Вы не можете удалять свои сообщения
Вы не можете голосовать в опросах
Вы не можете прикреплять файлы к сообщениям
Вы не можете скачивать файлы