Генсбур. Любовь хулигана / Gainsbourg (Vie heroique) (Джоан Сфар) [2010 г., Биография, Драма, DVDRip]

Ответить на тему
 

Nosferatu ®

Стаж: 4 года 6 месяцев

Сообщений: 79

Симпатии: 5

Генсбур. Любовь хулигана / Gainsbourg (Vie heroique)- -
Год выпуска: 2010
Страна: США, Франция
Жанр: Биография, Драма
Продолжительность: 02:21:21
Перевод: Профессиональный (многоголосый, закадровый)-Режиссер: Джоан Сфар-В ролях:
Анна Муглалис, Динара Друкарова, Дуг Джонс, Йоланда Моро, Летиция Каста, Лина Джем-Паной, Люси Гордон, Разван Василеску, Сара Форестье, Эрик Элмоснино-Описание:
Серж Генсбур широко известен всем как гениальный поэт, шансонье, киноактер, режиссер и… хулиган. В его объятиях побывал с десяток самых красивых женщин Франции 60—70-80-х гг., от Джейн Биркин до Брижитт Бардо, с каждой из которых он записал по альбому. Он играл с Катрин Денев и Жераром Депардье в одном фильме, делал неприличные предложения Уитни Хьюстон в прямом телеэфире и вырастил красавицу-дочь Шарлотту, недавно получившую Каннскую пальмовую ветвь за роль в «Антихристе».-Доп. информация: Бюджет: € 16 млн.-Качество: DVDRip
Формат: AVI
Видео кодек: XviD
Аудио кодек: AC3
Видео: Xvid 720x400 25fps 2 081 Kbps [Stream 00]
Audio: Dolby AC3 48000Hz 6ch 448kbps Russian [Stream 01]
Audio: MP3 44100Hz stereo 128kbps French [Stream 02]

Media Info

Format : AVI
Format/Info : Audio Video Interleave
Format profile : OpenDML
File size : 2.05 GiB
Duration : 2h 21mn
Overall bit rate : 2 081 Kbps
Writing application : VirtualDubMod 1.5.10.2 (build 2542/release)
Writing library : VirtualDubMod build 2542/release
Video
ID : 0
Format : MPEG-4 Visual
Format profile : Advanced [email protected]
Format settings, BVOP : 2
Format settings, QPel : No
Format settings, GMC : No warppoints
Format settings, Matrix : Default (MPEG)
Muxing mode : Packed bitstream
Codec ID : XVID
Codec ID/Hint : XviD
Duration : 2h 21mn
Bit rate : 1 486 Kbps
Width : 720 pixels
Height : 400 pixels
Display aspect ratio : 16:9
Frame rate : 25.000 fps
Color space : YUV
Chroma subsampling : 4:2:0
Bit depth : 8 bits
Scan type : Progressive
Compression mode : Lossy
Bits/(Pixel*Frame) : 0.206
Stream size : 1.47 GiB (71%)
Writing library : XviD 1.2.1 (UTC 2008-12-04)
Audio #1
ID : 1
Format : AC-3
Format/Info : Audio Coding 3
Mode extension : CM (complete main)
Format settings, Endianness : Big
Codec ID : 2000
Duration : 2h 21mn
Bit rate mode : Constant
Bit rate : 448 Kbps
Channel(s) : 6 channels
Channel positions : Front: L C R, Side: L R, LFE
Sampling rate : 48.0 KHz
Bit depth : 16 bits
Compression mode : Lossy
Delay relative to video : 24ms
Stream size : 453 MiB (22%)
Alignment : Split accross interleaves
Interleave, duration : 40 ms (1.00 video frame)
Interleave, preload duration : 500 ms
Audio #2
ID : 2
Format : MPEG Audio
Format version : Version 1
Format profile : Layer 3
Mode : Joint stereo
Mode extension : MS Stereo
Codec ID : 55
Codec ID/Hint : MP3
Duration : 2h 21mn
Bit rate mode : Constant
Bit rate : 128 Kbps
Channel(s) : 2 channels
Sampling rate : 44.1 KHz
Compression mode : Lossy
Delay relative to video : 7ms
Stream size : 129 MiB (6%)
Alignment : Split accross interleaves
Interleave, duration : 40 ms (1.00 video frame)
Interleave, preload duration : 500 ms

Скриншоты












Приятного просмотра! az


Последний раз редактировалось: Nosferatu (2013-05-24 16:08), всего редактировалось 4 раз(а)

Создавать темы 24-Май-2013 15:33

[Профиль]  [ЛС] 

WictoR

Стаж: 5 лет 5 месяцев

Сообщений: 30

Симпатии: 7

где скриншоты ?

Создавать темы 24-Май-2013 15:52

[Профиль]  [ЛС] 

mp1988

Стаж: 6 лет 7 месяцев

Сообщений: 607

Симпатии: 971

Nosferatu, cкриншоты добавь и к каждой дорожке допиши язык

Создавать темы 24-Май-2013 16:05

[Профиль]  [ЛС] 

Taa6969

Стаж: 6 лет 2 месяца

Сообщений: 123

Симпатии: 2

ну как фильм ?

Создавать темы 27-Май-2013 13:31

[Профиль]  [ЛС] 

nico3500

Стаж: 4 года 8 месяцев

Сообщений: 99

Симпатии: 6

Летиция Каста в роли Бриджит Бордо - масло масляное. Одна супер сексбомба играет другую супер секс бомбу. СУПЕР.

Создавать темы 01-Июн-2013 09:35

[Профиль]  [ЛС] 
Показать сообщения:    
Ответить на тему

Текущее время: 19-Сен 22:13

Часовой пояс: UTC + 5



Вы не можете начинать темы
Вы не можете отвечать на сообщения
Вы не можете редактировать свои сообщения
Вы не можете удалять свои сообщения
Вы не можете голосовать в опросах
Вы не можете прикреплять файлы к сообщениям
Вы не можете скачивать файлы