Ра / R'ha (Калеб Леховски / Kaleb Lechowski) [2013 г., Германия, мультфильм, фантастика, WEB-DLRip, 720p] MVO + Original (Eng) + Sub (rus, eng)

Ответить на тему
 

2222 ®

Стаж: 5 лет 1 месяц

Сообщений: 193

Симпатии: 3

-Ра / R'ha--Год выпуска: 2013
Страна: Германия
Жанр: мультфильм,фантастика-Продолжительность: 00:06:26
Перевод: RG-Creative Sound
Субтитры: Да (русские, английские)
Оригинальная дорожка: английская--Режиссер: Калеб Леховски / Kaleb Lechowski--В ролях:
Alien and Machine (Dave Masterson), CG 180 RG, Aekon (David Masterson)--Описание:

Машины, восставшие против своих создателей инопланетной расы пытают одного из инопланетян, пытаясь добыть из него максимум информации.
-- -Качество видео: WEB-DLRip 720p (Исходник: WEB-DL 1080p/pasha37 )
Формат видео: MKV
Видео: AVC (x264), 1280 x 544 (2.35:1), ~3 719 kbps, 24 fps, 0,223 bpp
Аудио №1 (Rus): AC3; 48.0 KHz; 192 Kbps; CBR; 2 ch (RG-Creative Sound)
Аудио №2 (Eng): AC3; 48.0 KHz; 192 Kbps; CBR; 2 ch (Original)-

Скриншоты

log

x264 [info]: frame I:73 Avg QP:11.73 size:100189
x264 [info]: frame P:1700 Avg QP:14.98 size: 37507
x264 [info]: frame B:7491 Avg QP:18.06 size: 14992
x264 [info]: consecutive B-frames: 2.0% 2.1% 4.6% 11.3% 11.8% 37.6% 8.6% 3.0% 4.2% 1.8% 1.7% 1.2% 1.4% 0.8% 1.3% 1.4% 5.3%
x264 [info]: mb I I16..4: 16.0% 56.4% 27.6%
x264 [info]: mb P I16..4: 2.5% 19.0% 2.4% P16..4: 25.1% 27.2% 10.9% 2.8% 0.4% skip: 9.7%
x264 [info]: mb B I16..4: 0.4% 4.6% 0.2% B16..8: 29.3% 16.3% 2.9% direct: 5.4% skip:40.9% L0:45.7% L1:43.1% BI:11.1%
x264 [info]: 8x8 transform intra:81.9% inter:54.6%
x264 [info]: direct mvs spatial:98.9% temporal:1.1%
x264 [info]: coded y,uvDC,uvAC intra: 81.1% 72.7% 60.4% inter: 20.3% 18.3% 6.7%
x264 [info]: i16 v,h,dc,p: 40% 13% 9% 37%
x264 [info]: i8 v,h,dc,ddl,ddr,vr,hd,vl,hu: 7% 10% 17% 9% 11% 9% 12% 10% 16%
x264 [info]: i4 v,h,dc,ddl,ddr,vr,hd,vl,hu: 9% 11% 16% 8% 13% 10% 12% 9% 13%
x264 [info]: i8c dc,h,v,p: 57% 22% 11% 10%
x264 [info]: Weighted P-Frames: Y:8.1% UV:3.1%
x264 [info]: ref P L0: 48.4% 5.5% 19.8% 7.5% 5.8% 4.1% 3.5% 1.9% 1.7% 1.5% 0.2% 0.0%
x264 [info]: ref B L0: 71.4% 13.5% 6.2% 3.0% 2.1% 1.6% 1.3% 0.5% 0.2%
x264 [info]: ref B L1: 90.9% 9.1%
x264 [info]: kb/s:3800.56

MI

General
Unique ID : 192530823102838600765221867392718650319 (0x90D816765568A56ABB3A06BE0D10BBCF)
Complete name : E:\Torrent\Razdachi\Ра (R`ha)\R'ha_(2013).HDRip-AVC.ac3-All.Films-RG.mkv
Format : Matroska
Format version : Version 2
File size : 193 MiB
Duration : 6mn 26s
Overall bit rate : 4 186 Kbps
Movie name : Ра / R'ha (2013) HDRip 720p [All.Films][RG]
Encoded date : UTC 2013-02-01 19:51:23
Writing application : mkvmerge v5.8.0 ('No Sleep / Pillow') built on Sep 2 2012 15:37:04
Writing library : libebml v1.2.3 + libmatroska v1.3.0
Video
ID : 1
Format : AVC
Format/Info : Advanced Video Codec
Format profile : [email protected]
Format settings, CABAC : Yes
Format settings, ReFrames : 10 frames
Codec ID : V_MPEG4/ISO/AVC
Duration : 6mn 26s
Bit rate : 3 719 Kbps
Width : 1 280 pixels
Height : 544 pixels
Display aspect ratio : 2.35:1
Frame rate mode : Constant
Frame rate : 24.000 fps
Color space : YUV
Chroma subsampling : 4:2:0
Bit depth : 8 bits
Scan type : Progressive
Bits/(Pixel*Frame) : 0.223
Stream size : 171 MiB (89%)
Writing library : x264 core 125 r2208 d9d2288
Encoding settings : cabac=1 / ref=10 / deblock=1:-2:-2 / analyse=0x3:0x133 / me=tesa / subme=11 / psy=1 / psy_rd=1.00:0.15 / mixed_ref=1 / me_range=64 / chroma_me=1 / trellis=2 / 8x8dct=1 / cqm=0 / deadzone=21,11 / fast_pskip=1 / chroma_qp_offset=-3 / threads=3 / lookahead_threads=1 / sliced_threads=0 / nr=0 / decimate=1 / interlaced=0 / bluray_compat=0 / constrained_intra=0 / bframes=16 / b_pyramid=2 / b_adapt=2 / b_bias=0 / direct=3 / weightb=1 / open_gop=0 / weightp=2 / keyint=250 / keyint_min=24 / scenecut=40 / intra_refresh=0 / rc_lookahead=60 / rc=crf / mbtree=1 / crf=16.0 / qcomp=0.60 / qpmin=0 / qpmax=69 / qpstep=4 / vbv_maxrate=17500 / vbv_bufsize=14000 / crf_max=0.0 / nal_hrd=none / ip_ratio=1.40 / aq=1:1.00
Default : Yes
Forced : No
Audio #1
ID : 2
Format : AC-3
Format/Info : Audio Coding 3
Mode extension : CM (complete main)
Format settings, Endianness : Big
Codec ID : A_AC3
Duration : 6mn 26s
Bit rate mode : Constant
Bit rate : 192 Kbps
Channel(s) : 2 channels
Channel positions : Front: L R
Sampling rate : 48.0 KHz
Bit depth : 16 bits
Compression mode : Lossy
Stream size : 8.84 MiB (5%)
Title : DVO (RG Creative Sound)
Language : Russian
Default : Yes
Forced : No
Audio #2
ID : 3
Format : AC-3
Format/Info : Audio Coding 3
Mode extension : CM (complete main)
Format settings, Endianness : Big
Codec ID : A_AC3
Duration : 6mn 26s
Bit rate mode : Constant
Bit rate : 192 Kbps
Channel(s) : 2 channels
Channel positions : Front: L R
Sampling rate : 48.0 KHz
Bit depth : 16 bits
Compression mode : Lossy
Stream size : 8.84 MiB (5%)
Title : Original
Language : English
Default : No
Forced : No
Text #1
ID : 4
Format : UTF-8
Codec ID : S_TEXT/UTF8
Codec ID/Info : UTF-8 Plain Text
Language : Russian
Default : No
Forced : No
Text #2
ID : 5
Format : UTF-8
Codec ID : S_TEXT/UTF8
Codec ID/Info : UTF-8 Plain Text
Language : English
Default : No
Forced : No

_________________
Подпись отключена за нарушение правил форума


Последний раз редактировалось: 2222 (2013-05-25 23:10), всего редактировалось 1 раз

Создавать темы 25-Май-2013 19:32

[Профиль]  [ЛС] 

SNIL

Стаж: 5 лет 7 месяцев

Сообщений: 2624

Симпатии: 341

Пркольно (жаль что кароткометражка)

Создавать темы 25-Май-2013 19:33

[Профиль]  [ЛС] 

2222 ®

Стаж: 5 лет 1 месяц

Сообщений: 193

Симпатии: 3

SNIL, да прикольный мульт)

_________________
Подпись отключена за нарушение правил форума

Создавать темы 25-Май-2013 19:51

[Профиль]  [ЛС] 

2222 ®

Стаж: 5 лет 1 месяц

Сообщений: 193

Симпатии: 3

Первый раз оформлял прямо с рутрекера)

_________________
Подпись отключена за нарушение правил форума

Создавать темы 25-Май-2013 20:51

[Профиль]  [ЛС] 

ashirov_89

Стаж: 4 года 1 месяц

Сообщений: 4

Мульт Берлинского студента привлёк внимание Голливуда!!!! это про этот мульт

Создавать темы 25-Фев-2014 16:20

[Профиль]  [ЛС] 
Показать сообщения:    
Ответить на тему

Текущее время: 19-Авг 06:55

Часовой пояс: UTC + 5



Вы не можете начинать темы
Вы не можете отвечать на сообщения
Вы не можете редактировать свои сообщения
Вы не можете удалять свои сообщения
Вы не можете голосовать в опросах
Вы не можете прикреплять файлы к сообщениям
Вы не можете скачивать файлы