Крепкий орешек: Хороший день, чтобы умереть / A Good Day to Die Hard (Джон Мур) [2013 г., Боевик, Криминал, Триллер, BDRip 720р]

Ответить на тему
 

Nosferatu ®

Стаж: 4 года 5 месяцев

Сообщений: 79

Симпатии: 5

Крепкий орешек: Хороший день, чтобы умереть
A Good Day to Die Hard
- -
Год выпуска: 2013
Страна: США
Жанр: Боевик, Криминал, Триллер
Продолжительность: 01:41:11
Перевод: Профессиональный (полное дублирование)-Режиссер: Джон Мур-В ролях:
Амори Ноласко, Брюс Уиллис, Коул Хаузер, Мэри Элизабет Уинстэд, Радивойе Буквич, Себастьян Кох, Юлия Снигирь, Джай Кортни, Сергей Колесников, Роман Лукнар-Описание:
Джон МакКлейн прибывает в Москву, чтобы вызволить из тюрьмы своего непредсказуемого сына, но холодная голова и железные мускулы вязнут в паутине российской действительности. Дело, в которое влип МакКлейн-младший, оказывается настолько «опасной трясиной», что отцу и сыну, чтобы выжить и в очередной раз спасти мир, приходится объединить свои усилия, забыв прежние, казалось бы, непреодолимые разногласия.-Доп. информация:
Бюджет: $92 000 000
Рейтинг:
КиноПоиск.Ru: 5.33 (13123)
IMDb: 5.5 (51797)-Качество: BDRip 720р
Формат: MKV
Видео кодек: AVC
Аудио кодек: AC3
Видео: MPEG4 Video (H264) 1280x694 23.976fps 6 141 Kbps
Аудио #1: AC-3, 384 Kbps, 6 channels, 48.0 KHz, rus, DUB
Аудио #2: DTS, 1510 Kbps, 6 channels, 48.0 KHz, eng
Субтитры: eng (SDH)

Media Info

Format : Matroska
Format version : Version 2
File size : 5.79 GiB
Duration : 1h 41mn
Overall bit rate : 8 197 Kbps
Encoded date : UTC 2013-05-23 04:16:14
Writing application : mkvmerge v5.2.0 ('I can't explain') built on Dec 18 2011 18:12:03
Writing library : libebml v1.2.3 + libmatroska v1.3.0
Video
ID : 1
Format : AVC
Format/Info : Advanced Video Codec
Format profile : [email protected]
Format settings, CABAC : Yes
Format settings, ReFrames : 5 frames
Codec ID : V_MPEG4/ISO/AVC
Duration : 1h 41mn
Bit rate : 6 141 Kbps
Nominal bit rate : 6 500 Kbps
Width : 1 280 pixels
Height : 694 pixels
Display aspect ratio : 1.85:1
Frame rate mode : Constant
Frame rate : 23.976 fps
Color space : YUV
Chroma subsampling : 4:2:0
Bit depth : 8 bits
Scan type : Progressive
Bits/(Pixel*Frame) : 0.288
Stream size : 4.34 GiB (75%)
Writing library : x264 core 130 r2273 b3065e6
Encoding settings : cabac=1 / ref=5 / deblock=1:0:0 / analyse=0x3:0x113 / me=umh / subme=7 / psy=1 / psy_rd=1.00:0.00 / mixed_ref=1 / me_range=16 / chroma_me=1 / trellis=1 / 8x8dct=1 / cqm=0 / deadzone=21,11 / fast_pskip=1 / chroma_qp_offset=-2 / threads=16 / lookahead_threads=2 / sliced_threads=0 / nr=0 / decimate=1 / interlaced=0 / bluray_compat=0 / constrained_intra=0 / bframes=3 / b_pyramid=2 / b_adapt=1 / b_bias=0 / direct=3 / weightb=1 / open_gop=0 / weightp=2 / keyint=240 / keyint_min=23 / scenecut=40 / intra_refresh=0 / rc_lookahead=40 / rc=abr / mbtree=1 / bitrate=6500 / ratetol=1.0 / qcomp=0.60 / qpmin=0 / qpmax=69 / qpstep=4 / ip_ratio=1.40 / aq=1:1.00
Language : English
Default : Yes
Forced : No
Audio #1
ID : 2
Format : AC-3
Format/Info : Audio Coding 3
Mode extension : CM (complete main)
Format settings, Endianness : Big
Codec ID : A_AC3
Duration : 1h 41mn
Bit rate mode : Constant
Bit rate : 384 Kbps
Channel(s) : 6 channels
Channel positions : Front: L C R, Side: L R, LFE
Sampling rate : 48.0 KHz
Bit depth : 16 bits
Compression mode : Lossy
Stream size : 278 MiB (5%)
Title : DUB
Language : Russian
Default : Yes
Forced : No
Audio #2
ID : 3
Format : DTS
Format/Info : Digital Theater Systems
Format profile : ES
Mode : 16
Format settings, Endianness : Big
Codec ID : A_DTS
Duration : 1h 41mn
Bit rate mode : Constant
Bit rate : 1 509 Kbps
Channel(s) : 6 channels
Channel positions : Front: L C R, Side: L R, LFE
Sampling rate : 48.0 KHz
Bit depth : 24 bits
Compression mode : Lossy
Stream size : 1.07 GiB (18%)
Language : English
Default : No
Forced : No
Text
ID : 4
Format : VobSub
Muxing mode : zlib
Codec ID : S_VOBSUB
Codec ID/Info : The same subtitle format used on DVDs
Title : SDH
Language : English
Default : No
Forced : No
Menu
00:00:00.000 : en:00:00:00.000
00:02:45.999 : en:00:02:45.999
00:05:02.135 : en:00:05:02.135
00:09:36.242 : en:00:09:36.242
00:12:13.900 : en:00:12:13.900
00:15:25.550 : en:00:15:25.550
00:18:02.999 : en:00:18:02.999
00:22:31.350 : en:00:22:31.350
00:28:31.376 : en:00:28:31.376
00:32:28.863 : en:00:32:28.863
00:36:05.914 : en:00:36:05.914
00:39:53.641 : en:00:39:53.641
00:42:20.621 : en:00:42:20.621
00:46:04.720 : en:00:46:04.720
00:50:30.986 : en:00:50:30.986
00:53:21.657 : en:00:53:21.657
00:57:05.547 : en:00:57:05.547
01:01:46.619 : en:01:01:46.619
01:05:03.650 : en:01:05:03.650
01:10:24.053 : en:01:10:24.053
01:14:04.982 : en:01:14:04.982
01:17:50.416 : en:01:17:50.416
01:20:18.021 : en:01:20:18.021
01:24:05.832 : en:01:24:05.832
01:26:17.923 : en:01:26:17.923
01:28:05.488 : en:01:28:05.488
01:32:37.802 : en:01:32:37.802
01:35:24.927 : en:01:35:24.927

Скриншоты










Приятного просмотра! az


Последний раз редактировалось: Nosferatu (2013-05-25 23:16), всего редактировалось 1 раз

Создавать темы 25-Май-2013 19:33

[Профиль]  [ЛС] 

Homercompany

Стаж: 7 лет 5 месяцев

Сообщений: 234

Симпатии: 7

EXTENDED версия ?
Видео отличное, но со звуком не уж так хорошее дублирование...

Создавать темы 25-Май-2013 20:36

[Профиль]  [ЛС] 

highlord!

Стаж: 6 лет 6 месяцев

Сообщений: 62

Симпатии: 1

Воопще нечего нового. Взяли и просто сняли. Нечего нового. Ждал большего.

Создавать темы 25-Май-2013 20:41

[Профиль]  [ЛС] 

Nosferatu ®

Стаж: 4 года 5 месяцев

Сообщений: 79

Симпатии: 5

highlord!, чего ждали? Конкретнее ))

Создавать темы 25-Май-2013 20:51

[Профиль]  [ЛС] 

Nosferatu ®

Стаж: 4 года 5 месяцев

Сообщений: 79

Симпатии: 5

highlord!, Чего то нового в кинематографии?

Создавать темы 25-Май-2013 20:52

[Профиль]  [ЛС] 

Топик был перенесен из форума Фильмы за 2013 (новинки) в форум Зарубежное кино

ziyod

Создавать темы 25-Май-2013 23:16

 

nurikaka

Стаж: 4 года 2 месяца

Сообщений: 1

не филм а ужас ппц что за филм они снимали

Создавать темы 26-Май-2013 01:55

[Профиль]  [ЛС] 

axeman

Стаж: 4 года 9 месяцев

Сообщений: 380

Симпатии: 50

Мдааа........... сюжет очень слабый и сценарий тоже.

Создавать темы 26-Май-2013 14:39

[Профиль]  [ЛС] 
Показать сообщения:    
Ответить на тему

Текущее время: 17-Авг 16:48

Часовой пояс: UTC + 5



Вы не можете начинать темы
Вы не можете отвечать на сообщения
Вы не можете редактировать свои сообщения
Вы не можете удалять свои сообщения
Вы не можете голосовать в опросах
Вы не можете прикреплять файлы к сообщениям
Вы не можете скачивать файлы