Невероятные концерты итальянцев в России или Сан-Ремо в Кремле собирает друзей 2 [2005 г., Ретро, DVDRip-AVC]

Ответить на тему
 

Дэвид ®

Стаж: 6 лет 5 месяцев

Сообщений: 40

Симпатии: 3

НЕВЕРОЯТНЫЕ КОНЦЕРТЫ ИТАЛЬЯНЦЕВ В РОССИИ ИЛИ САН-РЕМО В КРЕМЛЕ СОБИРАЕТ ДРУЗЕЙ 2
-
Год выпуска: 2005
Страна: Россия/Италия
Жанр: Ретро
Продолжительность: 01:45:27
-
Исполнители:
Ирина Понаровская, Лайма Вайкуле, Стас Пьеха, Жасмин, Светлана Светикова, Алексей Глызин, Владимир Кузьмин, Сосо Павлиашвили
Группы:
Ricchi & Poveri, Земляне, Фабрика
-

Трэклист

1. ACAPULCO - RICCHI POVERI & "FABRIKA"
2. SEI LA SOLA CHE AMO - RICCHI POVERI, SVETLANA SVETIKOVA, ALEKSEI GLIZIN
3. NINNA NANNA - RICCHI POVERI & "BLESTYASHIE"
4. LES JEUX SONT FAITS - MARIELLA NAVA & STAS P'EXA
5. TU , SOLTANO TU - AL BANO & ZHASMIN
6. FELICITA - S. ALBANO
7. TU - AMBERTO TOZZI
8. GLI ATTRI SIAMP NOI - UMBERTO TOZZI & "ZEMLYANE"
9. GLI INNAMORATI - UMBERTO TOZZI & VLADIMIR KUZ'MIN
10. COSI SEI TU - AMEDEO MINGHI & DIANA GURTZKAYA
11. IL TRENO VA - TOTO CUTUGNO
12. SOLI - TOTO CUTUGNO & SVETLANA SVETIKOVA
13. IL TEMPO SE NE VA - TOTO CUTUGNO & SOSO PAVLIASHVILI
14. SOLO NOI - TOTO CUTUGNO & DIANA GURTZKAYA
15. I OPYAT' V DVORE - ALBANO & IRINA PONAROVSKAYA
16. SHARAZAN - ALBANO & LAIMA VAIKULE
17. LIST'YA ZHELTIE - ALBANO & LAIMA VAIKULE

-
Качество: DVDRip-AVC
Формат: MKV
Видео кодек: H.26x
Аудио кодек: AAC
Видео: AVC, 720x536, 1 021 Kbps
Аудио: 2 channels, 44.1 KHz, 132.3 Kbps

Media Info

Format : MPEG-4
Format profile : Base Media / Version 2
Codec ID : mp42
File size : 871 MiB
Duration : 1h 45mn
Overall bit rate : 1 156 Kbps
Encoded date : UTC 2009-07-07 21:55:47
Tagged date : UTC 2009-07-07 21:55:47
Writing application : FormatFactory : www.pcfreetime.com
Video
ID : 201
Format : MPEG-4 Visual
Format profile : [email protected]
Format settings, BVOP : No
Format settings, QPel : No
Format settings, GMC : No warppoints
Format settings, Matrix : Default (H.263)
Codec ID : 20
Duration : 1h 45mn
Bit rate mode : Variable
Bit rate : 1 021 Kbps
Maximum bit rate : 3 028 Kbps
Width : 768 pixels
Height : 576 pixels
Display aspect ratio : 4:3
Frame rate mode : Constant
Frame rate : 24.000 fps
Color space : YUV
Chroma subsampling : 4:2:0
Bit depth : 8 bits
Scan type : Progressive
Compression mode : Lossy
Bits/(Pixel*Frame) : 0.096
Stream size : 770 MiB (88%)
Writing library : Lavc53.8.0
Encoded date : UTC 2009-07-07 21:55:47
Tagged date : UTC 2009-07-07 21:56:41
Audio
ID : 101
Format : AAC
Format/Info : Advanced Audio Codec
Format profile : LC
Codec ID : 40
Duration : 1h 45mn
Bit rate mode : Variable
Bit rate : 132.3 Kbps
Maximum bit rate : 155 Kbps
Channel(s) : 2 channels
Channel positions : Front: L R
Sampling rate : 44.1 KHz
Compression mode : Lossy
Stream size : 99.7 MiB (11%)
Encoded date : UTC 2013-05-25 21:56:30
Tagged date : UTC 2013-05-25 21:56:41
-

Скриншоты








Последний раз редактировалось: Дэвид (2013-05-26 06:45), всего редактировалось 1 раз

Создавать темы 25-Май-2013 20:28

[Профиль]  [ЛС] 

Rico87

Стаж: 6 лет 8 месяцев

Сообщений: 279

Симпатии: 17

Дэвид Спасибо.

Создавать темы 25-Май-2013 20:38

[Профиль]  [ЛС] 

Дэвид ®

Стаж: 6 лет 5 месяцев

Сообщений: 40

Симпатии: 3

Дэвид Спасибо.
Да незачто

Создавать темы 25-Май-2013 20:52

[Профиль]  [ЛС] 

sky

Стаж: 6 лет 4 месяца

Сообщений: 61

Симпатии: 6

Уважаемый Дэвид, а mp3 есть из этого концерта? или другие из Сан-Ремо

Создавать темы 26-Май-2013 08:32

[Профиль]  [ЛС] 

Дэвид ®

Стаж: 6 лет 5 месяцев

Сообщений: 40

Симпатии: 3

Уважаемый Дэвид, а mp3 есть из этого концерта? или другие из Сан-Ремо
sky КОНЕЧНО ЕСТЬ СКОРО ВЫЛОЖУ

Создавать темы 26-Май-2013 13:24

[Профиль]  [ЛС] 
Показать сообщения:    
Ответить на тему

Текущее время: 24-Ноя 21:55

Часовой пояс: UTC + 5



Вы не можете начинать темы
Вы не можете отвечать на сообщения
Вы не можете редактировать свои сообщения
Вы не можете удалять свои сообщения
Вы не можете голосовать в опросах
Вы не можете прикреплять файлы к сообщениям
Вы не можете скачивать файлы