Операция «Ы» и другие приключения Шурика (Леонид Гайдай) [1965 г., мелодрама, комедия, криминал, BDRip]

Страницы :  1, 2  След.

Ответить на тему
 

garris ®

Стаж: 5 лет 3 месяца

Сообщений: 78

Симпатии: 8

Операция «Ы» и другие приключения Шурика
Год выпуска: 1965
Выпущено: СССР
Жанр: мелодрама, комедия, криминал
Продолжительность: 01:34:33
Режиссер: Леонид Гайдай
В ролях: Александр Демьяненко, Наталья Селезнёва, Алексей Смирнов, Юрий Никулин, Евгений Моргунов, Георгий Вицин, Михаил Пуговкин, Виктор Павлов, Владимир Басов, Рина Зеленая
Описание: Фильм состоит из трех новелл, объединенных фигурой главного героя Шурика, попадающего в самые невероятные ситуации. В «Напарнике» Шурик сражается с хулиганом Верзилой; в «Наваждении» весьма оригинальным способом готовится к экзамену; в «Операции «Ы» предотвращает «ограбление века», на которое идет знаменитая тройка - Балбес, Трус и Бывалый.
Доп. информация:
Автор рипа: kingsize87 - HQCLUB
Качество: BDRip (источник: / Blu-ray / 1080p)
Формат: AVI
Видео кодек: XviD
Аудио кодек: AC3
Видео: 720x544 (1.32:1), 23,976 fps, XviD build 65 ~1802 kbps avg, 0.22 bit/pixel
Аудио: 48 kHz, AC3 Dolby Digital, 3/2 (L,C,R,l,r) + LFE ch, ~384.00 kbps avg
Субтитры: Нет

Медиа инфо

Format : AVI
Format/Info : Audio Video Interleave
File size : 1.45 GiB
Duration : 1h 34mn
Overall bit rate : 2 203 Kbps
Movie name : Operatsiya "Y" I Drugie Priklyucheniya Shurika (1965)
Director : Vaippp
Genre : Comedy/Romance
Writing application : VirtualDubModRus 1.5.10.2 (build 2542/release)
Original source form/Name : Movie
Copyright : HQ-ViDEO
Comment : BDRip
Video #0
ID : 0
Format : MPEG-4 Visual
Format profile : [email protected]
Format settings, BVOP : Yes
Format settings, QPel : No
Format settings, GMC : No warppoints
Format settings, Matrix : Custom
Codec ID : XVID
Codec ID/Hint : XviD
Duration : 1h 34mn
Bit rate : 1 745 Kbps
Width : 720 pixels
Height : 544 pixels
Display aspect ratio : 4:3
Frame rate : 23.976 fps
Resolution : 24 bits
Colorimetry : 4:2:0
Scan type : Progressive
Bits/(Pixel*Frame) : 0.186
Stream size : 1.15 GiB (79%)
Writing library : XviD 73
Audio #1
ID : 1
Format : AC-3
Format/Info : Audio Coding 3
Codec ID : 2000
Duration : 1h 34mn
Bit rate mode : Constant
Bit rate : 448 Kbps
Channel(s) : 6 channels
Channel positions : Front: L C R, Surround: L R, LFE
Sampling rate : 48.0 KHz
Stream size : 303 MiB (20%)
Alignment : Split accross interleaves
Interleave, duration : 42 ms (1.00 video frame)
Interleave, preload duration : 500 ms

Скриншоты








Последний раз редактировалось: garris (2013-05-25 23:25), всего редактировалось 1 раз

Создавать темы 25-Май-2013 22:53

[Профиль]  [ЛС] 

rikimaruxxx

Стаж: 5 лет 3 месяца

Сообщений: 254

Симпатии: 42

спс за релиз будем поностальгировать вспомнив детство

Создавать темы 25-Май-2013 23:36

[Профиль]  [ЛС] 

mcfake

Стаж: 4 года 7 месяцев

Сообщений: 10

1965 BD

Создавать темы 25-Май-2013 23:40

[Профиль]  [ЛС] 

Rammstein94

Стаж: 6 лет 5 месяцев

Сообщений: 37

1965 BD
и че терь??? это рип!!! можно сделать и BDRemux с размером 40 гб

Создавать темы 25-Май-2013 23:43

[Профиль]  [ЛС] 

rikimaruxxx

Стаж: 5 лет 3 месяца

Сообщений: 254

Симпатии: 42

mcfake, [#045] Гражданин Кейн / Citizen Kane (Орсон Уэллс) [1941 г., драма] BDRip-AVC
http://tas-ix.net/viewtopic.php?t=49354
http://tas-ix.net/viewtopic.php?t=53074
http://tas-ix.net/viewtopic.php?t=54445


Последний раз редактировалось: rikimaruxxx (2013-05-25 23:49), всего редактировалось 1 раз

Создавать темы 25-Май-2013 23:43

[Профиль]  [ЛС] 

garris ®

Стаж: 5 лет 3 месяца

Сообщений: 78

Симпатии: 8

Да про ностальгию, как слова: мне до лампочки., Тунияцы алкоголики и хулиганы ag

Создавать темы 25-Май-2013 23:48

[Профиль]  [ЛС] 

Fox_M

Стаж: 4 года 11 месяцев

Сообщений: 110

Симпатии: 35

Спасибо большое!!!Ностальгия это точно,такие слова как :"Надо Федя,надо" и много других.

Создавать темы 26-Май-2013 08:13

[Профиль]  [ЛС] 

Rammstein94

Стаж: 6 лет 5 месяцев

Сообщений: 37

Беру в коллекцию

Создавать темы 26-Май-2013 14:38

[Профиль]  [ЛС] 

dramil

Стаж: 6 лет 7 месяцев

Сообщений: 183

Симпатии: 62

Автор, почему при поиске по трекеру по слову "Операция" ваша раздача не попадает в результат поиска? Но при поиске по слову "Шурик" она там есть. Просьба исправить название

Создавать темы 02-Июн-2013 21:07

[Профиль]  [ЛС] 

garris ®

Стаж: 5 лет 3 месяца

Сообщений: 78

Симпатии: 8

dramil, Да по слову операция не выходит а по слову операция ы выходит,
даже незнаю что там подправить ! Модераторы может вы знаете подправьте пожалуйста!!!

Создавать темы 02-Июн-2013 22:13

[Профиль]  [ЛС] 

Machine

Стаж: 5 лет 1 месяц

Сообщений: 209

Симпатии: 68

Это не кино... Это шедевр, легенда, сказка, всё что угодно... , таких фильмов какие снимал Гайдай, не снимают и уже никогда не снимет никто... Актёры вообще отдельная тема для обсуждения... Игра выше любых похвал...

Создавать темы 03-Июн-2013 16:00

[Профиль]  [ЛС] 

San_dieGo

Стаж: 4 года 8 месяцев

Сообщений: 155

Симпатии: 2

Это не кино... Это шедевр, легенда, сказка, всё что угодно... , таких фильмов какие снимал Гайдай, не снимают и уже никогда не снимет никто... Актёры вообще отдельная тема для обсуждения... Игра выше любых похвал...
Отлично сказано.... подтверждаю!

Создавать темы 06-Июн-2013 13:51

[Профиль]  [ЛС] 

Alish96.ru

Стаж: 4 года 4 месяца

Сообщений: 19

пожалуйста начните раздачу

Создавать темы 06-Июл-2013 10:47

[Профиль]  [ЛС] 

bobur94

Стаж: 6 лет 3 месяца

Сообщений: 56

Симпатии: 16

спс за релиз будем поностальгировать вспомнив детство
блин, музика - просто супер! MP3

Создавать темы 06-Июл-2013 17:33

[Профиль]  [ЛС] 

musl1im_

Стаж: 5 лет

Сообщений: 50

ребят вас 5 сиддеров а толку нету чё за дела?

Создавать темы 04-Фев-2014 00:08

[Профиль]  [ЛС] 
Показать сообщения:    
Ответить на тему

Текущее время: 26-Сен 10:41

Часовой пояс: UTC + 5



Вы не можете начинать темы
Вы не можете отвечать на сообщения
Вы не можете редактировать свои сообщения
Вы не можете удалять свои сообщения
Вы не можете голосовать в опросах
Вы не можете прикреплять файлы к сообщениям
Вы не можете скачивать файлы