От заката до рассвета / From Dusk Till Dawn: Трилогия [1996/1999 г., Ужасы, боевик, фэнтези ..., BDRip 720p] MVO+AVO+Original / subs (rus,eng)

Страницы :  1, 2  След.

Ответить на тему
 

Robot-IX ®

Стаж: 5 лет 6 месяцев

Сообщений: 223

Симпатии: 9

От заката до рассвета / From Dusk Till Dawn
«How far can Too Far go?»--
Год выпуска: 1996
Страна: США
Студия: Dimension Films, A Band Apart, Los Hooligans Productions, Miramax Films
Жанр: Ужасы, боевик, триллер, фэнтези, ...
Продолжительность: 01:35:23
Перевод:
- профессиональный (многоголосый, закадровый)(R5)
- профессиональный (одноголосый, закадровый)(Андрей Гаврилов)
Оригинальная аудиодорожка: английская
Субтитры: русские полные, английские полные-Режиссёр: Роберт Родригес
Сценарий: Квентин Тарантино, Роберт Куртцман
Продюсер: Джанни Нуннари, Мейр Тепер, Элизабет Авеллан, ...
Оператор: Гильермо Наварро
Композитор: Грэм Ревелл-В ролях: Джордж Клуни, Харви Кейтель, Квентин Тарантино, Джульетт Льюис, Эрнест Лю, Сальма Хайек, Чич Марин, Дэнни Трехо, Том Савини, Фред Уильямсон, ...-Описание:
Спасаясь от полиции после ограбления банка, два брата — грабителя берут в заложники
священника и его детей. Около американской границы они решают провести ночь в придорожном баре.
Тут-то всё и начинается…-Доп. информация:
IMDb: 7,2/10
КиноПоиск: 7.898/10
MPAA:R
18+ Детям до 17 лет обязательно присутствие родителей-Качество: BDRip(720p)
Формат: MKV/AVC (Matroska)
Видео кодек: AVC/х264
Аудио кодек: AC3, DTS
Видео: AVC, 1280x720, 23.976 fps, 5 423 kbps avg, 0.245 bits/pixel ...
Аудио №1: Русский, AC3, 5.1 ch (L,C,R,l,r) + LFE, 48.0 KHz, 384 kbps avg | закадровый, многоголосый
Аудио №2: Русский, AC3, 5.1 ch (L,C,R,l,r) + LFE, 48.0 KHz, 384 kbps avg | закадровый, одноголосый
Аудио №3: Английский, DTS, 5.1 ch (L,C,R,l,r) + LFE, 48.0 KHz, 1510 kbps | Оригинал
Субтитры №1: Русские, SRT (full/полные) - отключены
Субтитры №2: Английские, SRT (full/полные) - отключены-

MediaInfo

General
Unique ID : 231133932890838324592489709162909904465 (0xADE2C6B870E209389AE5DBD30A3FAE51)
Complete name : D:\Torent\От заката до рассвета 1-3\From.Dusk.Till.Dawn.1.1996.720p.BluRay.Rus.Eng.mkv
Format : Matroska
Format version : Version 4 / Version 2
File size : 5.80 GiB
Duration : 1h 47mn
Overall bit rate : 7 692 Kbps
Movie name : HD-Uploaders by -Jackal-
Encoded date : UTC 2013-05-17 18:54:22
Writing application : mkvmerge v6.0.0 ('Coming Up For Air') built on Jan 20 2013 09:52:00
Writing library : libebml v1.3.0 + libmatroska v1.4.0
Video
ID : 1
Format : AVC
Format/Info : Advanced Video Codec
Format profile : [email protected]
Format settings, CABAC : Yes
Format settings, ReFrames : 3 frames
Codec ID : V_MPEG4/ISO/AVC
Duration : 1h 47mn
Bit rate : 5 423 Kbps
Width : 1 280 pixels
Height : 720 pixels
Display aspect ratio : 16:9
Frame rate : 23.976 fps
Color space : YUV
Chroma subsampling : 4:2:0
Bit depth : 8 bits
Scan type : Progressive
Bits/(Pixel*Frame) : 0.245
Stream size : 3.97 GiB (68%)
Title : From Dusk Till Dawn 1: The Hangman's Daughter (1996)
Writing library : x264 core 80 r1376M 3feaec2
Encoding settings : cabac=1 / ref=3 / deblock=1:-3:-3 / analyse=0x3:0x133 / me=umh / subme=9 / psy=1 / psy_rd=0.9:0.0 / mixed_ref=1 / me_range=32 / chroma_me=1 / trellis=2 / 8x8dct=1 / cqm=0 / deadzone=21,11 / fast_pskip=1 / chroma_qp_offset=-2 / threads=3 / sliced_threads=0 / nr=0 / decimate=1 / mbaff=0 / constrained_intra=0 / bframes=6 / b_pyramid=0 / b_adapt=2 / b_bias=0 / direct=1 / wpredb=1 / wpredp=2 / keyint=250 / keyint_min=25 / scenecut=40 / rc_lookahead=40 / rc=2pass / mbtree=1 / bitrate=5423 / ratetol=1.0 / qcomp=0.60 / qpmin=10 / qpmax=51 / qpstep=4 / cplxblur=20.0 / qblur=0.5 / ip_ratio=1.40 / aq=1:1.00
Language : English
Default : Yes
Forced : No
Audio #1
ID : 2
Format : AC-3
Format/Info : Audio Coding 3
Mode extension : CM (complete main)
Format settings, Endianness : Big
Codec ID : A_AC3
Duration : 1h 47mn
Bit rate mode : Constant
Bit rate : 384 Kbps
Channel(s) : 6 channels
Channel positions : Front: L C R, Side: L R, LFE
Sampling rate : 48.0 KHz
Bit depth : 16 bits
Compression mode : Lossy
Stream size : 297 MiB (5%)
Title : MVO (R5)
Language : Russian
Default : Yes
Forced : No
Audio #2
ID : 3
Format : AC-3
Format/Info : Audio Coding 3
Mode extension : CM (complete main)
Format settings, Endianness : Big
Codec ID : A_AC3
Duration : 1h 47mn
Bit rate mode : Constant
Bit rate : 384 Kbps
Channel(s) : 6 channels
Channel positions : Front: L C R, Side: L R, LFE
Sampling rate : 48.0 KHz
Bit depth : 16 bits
Compression mode : Lossy
Stream size : 297 MiB (5%)
Title : AVO (Андрей Гаврилов)
Language : Russian
Default : No
Forced : No
Audio #3
ID : 4
Format : DTS
Format/Info : Digital Theater Systems
Codec ID : A_DTS
Duration : 1h 47mn
Bit rate mode : Constant
Bit rate : 1 510 Kbps
Channel(s) : 6 channels
Channel positions : Front: L C R, Side: L R, LFE
Sampling rate : 48.0 KHz
Bit depth : 24 bits
Compression mode : Lossy
Stream size : 1.14 GiB (20%)
Title : Original
Language : English
Default : No
Forced : No
Text #1
ID : 5
Format : UTF-8
Codec ID : S_TEXT/UTF8
Codec ID/Info : UTF-8 Plain Text
Language : Russian
Default : No
Forced : No
Text #2
ID : 6
Format : UTF-8
Codec ID : S_TEXT/UTF8
Codec ID/Info : UTF-8 Plain Text
Language : English
Default : No
Forced : No

Скриншоты





---От заката до рассвета 2: Кровавые деньги из Техаса / From Dusk Till Dawn 2: Texas Blood Money
«Just wade the edge of your mind, and you won't need money any more.»--
Год выпуска: 1999
Страна: США
Студия: Dimension Films, A Band Apart, Los Hooligans Productions
Жанр: Ужасы, боевик, триллер, фэнтези, ...
Продолжительность: 01:28:07
Перевод:
- профессиональный (многоголосый, закадровый)(R5)
Оригинальная аудиодорожка: английская
Субтитры: русские полные, английские обязательные/полные-Режиссёр: Скотт Шпигель
Сценарий: Скотт Шпигель, Боаз Якин, Дуан Уайтакер
Продюсеры: Элизабет Авеллан, Лоуренс Бендер, Расселл Д. Марковиц, ...
Оператор: Филип Ли
Композиторы: Джозеф Уильямс, Дави Аллан, Дик Дэйл-В ролях: Роберт Патрик, Бо Хопкинс, Дуан Уайтакер, Мьюз Уотсон, Бретт Харрельсон, Рэймонд Крус, Дэнни Трехо, Джеймс Паркс, Стэйси Буржуа, Мария Чека, Брюс Кэмпбелл ...-Описание:
Пятеро крутых парней решают ограбить банк в Мексике. Они еще не сдвинулись с места, а полиция уже сидела на хвосте, разыскивая только что сбежавшего из-под стражи их сообщника Лютера. С ним Бак назначил встречу в пути. Все едва не сорвалось, когда ночью в дороге, неподалеку от бара «Крученые сиськи», у Лютера ломается машина…-Доп. информация:
IMDb: 3,9/10
КиноПоиск: 5.058/10
MPAA:R
16+ Детям до 17 лет обязательно присутствие родителей-Качество: BDRip(720p)
Формат: MKV/AVC (Matroska)
Видео кодек: AVC/х264
Аудио кодек: AC3
Видео: AVC, 1280x720, 23.976 fps, 6 333 kbps, 0.287 bits/pixel ...
Аудио №1: Русский, AC3, 5.1 ch (L,C,R,l,r) + LFE, 48.0 KHz, 384 kbps avg | закадровый, многоголосый
Аудио №2: Английский, AC3, 5.1 ch (L,C,R,l,r) + LFE, 48.0 KHz, 384 kbps avg | Оригинал
Субтитры №1: Английские, SRT (forced/обязательные) - включены
Субтитры №2: Русские, SRT (full/полные) - отключены
Субтитры №3: Английские, SRT (full/полные) - отключены-

MediaInfo

General
Unique ID : 216014430025865102220233261381942096429 (0xA282DDACF9E03AA3AA9CB99B6929B22D)
Complete name : D:\Torent\От заката до рассвета 1-3\From.Dusk.Till.Dawn.2.1999.720p.BluRay.Rus.Eng.mkv
Format : Matroska
Format version : Version 1
File size : 4.37 GiB
Duration : 1h 28mn
Overall bit rate : 7 103 Kbps
Movie name : От заката до рассвета 2: Кровавые деньги из Техаса / From Dusk Till Dawn 2: Texas Blood Money (1999) BDRip 720p - firebit.org
Encoded date : UTC 2011-12-21 22:16:07
Writing application : mkvmerge v2.3.0 ('Freak U') built on Sep 8 2008 18:32:16
Writing library : libebml v0.7.7 + libmatroska v0.8.1
Video
ID : 1
Format : AVC
Format/Info : Advanced Video Codec
Format profile : [email protected]
Format settings, CABAC : Yes
Format settings, ReFrames : 5 frames
Codec ID : V_MPEG4/ISO/AVC
Duration : 1h 28mn
Bit rate : 6 333 Kbps
Width : 1 280 pixels
Height : 720 pixels
Display aspect ratio : 16:9
Frame rate : 23.976 fps
Color space : YUV
Chroma subsampling : 4:2:0
Bit depth : 8 bits
Scan type : Progressive
Bits/(Pixel*Frame) : 0.287
Stream size : 3.81 GiB (87%)
Title : http://firebit.org
Writing library : x264 core 120 r2120 0c7dab9
Encoding settings : cabac=1 / ref=5 / deblock=1:0:0 / analyse=0x3:0x133 / me=umh / subme=8 / psy=1 / psy_rd=1.00:0.00 / mixed_ref=1 / me_range=16 / chroma_me=1 / trellis=1 / 8x8dct=1 / cqm=0 / deadzone=21,11 / fast_pskip=0 / chroma_qp_offset=-2 / threads=18 / sliced_threads=0 / nr=0 / decimate=1 / interlaced=0 / bluray_compat=0 / constrained_intra=0 / bframes=3 / b_pyramid=2 / b_adapt=1 / b_bias=0 / direct=1 / weightb=1 / open_gop=0 / weightp=2 / keyint=250 / keyint_min=23 / scenecut=40 / intra_refresh=0 / rc_lookahead=40 / rc=2pass / mbtree=1 / bitrate=6333 / ratetol=1.0 / qcomp=0.60 / qpmin=0 / qpmax=69 / qpstep=4 / cplxblur=20.0 / qblur=0.5 / ip_ratio=1.40 / aq=1:1.00
Language : English
Default : Yes
Forced : No
Audio #1
ID : 2
Format : AC-3
Format/Info : Audio Coding 3
Mode extension : CM (complete main)
Format settings, Endianness : Big
Codec ID : A_AC3
Duration : 1h 28mn
Bit rate mode : Constant
Bit rate : 384 Kbps
Channel(s) : 6 channels
Channel positions : Front: L C R, Side: L R, LFE
Sampling rate : 48.0 KHz
Bit depth : 16 bits
Compression mode : Lossy
Stream size : 242 MiB (5%)
Title : http://firebit.org
Language : Russian
Default : Yes
Forced : No
Audio #2
ID : 3
Format : AC-3
Format/Info : Audio Coding 3
Mode extension : CM (complete main)
Format settings, Endianness : Big
Codec ID : A_AC3
Duration : 1h 28mn
Bit rate mode : Constant
Bit rate : 384 Kbps
Channel(s) : 6 channels
Channel positions : Front: L C R, Side: L R, LFE
Sampling rate : 48.0 KHz
Bit depth : 16 bits
Compression mode : Lossy
Stream size : 242 MiB (5%)
Title : http://firebit.org
Language : English
Default : No
Forced : No
Text #1
ID : 4
Format : UTF-8
Codec ID : S_TEXT/UTF8
Codec ID/Info : UTF-8 Plain Text
Title : http://firebit.org
Language : English
Default : Yes
Forced : No
Text #2
ID : 5
Format : UTF-8
Codec ID : S_TEXT/UTF8
Codec ID/Info : UTF-8 Plain Text
Title : http://firebit.org
Language : Russian
Default : No
Forced : No
Text #3
ID : 6
Format : UTF-8
Codec ID : S_TEXT/UTF8
Codec ID/Info : UTF-8 Plain Text
Title : http://firebit.org
Language : English
Default : No
Forced : No

Скриншоты





---От заката до рассвета 3: Дочь палача / From Dusk Till Dawn 3: The Hangman's Daughter
«Take part in some amazing thrill-ride.»--
Год выпуска: 1999
Страна: США
Студия: Dimension Films, A Band Apart, Los Hooligans Productions
Жанр: Ужасы, боевик, триллер, фэнтези, ...
Продолжительность: 01:33:01
Перевод:
- профессиональный (многоголосый, закадровый)(R5)
- профессиональный (одноголосый, закадровый)(Андрей Гаврилов)
Оригинальная аудиодорожка: английская
Субтитры: русские полные, английские полные-Режиссёр: П.Дж. Пеше
Сценарий: Альваро Родригес, Роберт Родригес
Продюсер: Майкл С. Мёрфи, Джанни Нуннари, Мейр Тепер, ...
Оператор: Майкл Бонвилейн
Композитор: Нэтан Барр-В ролях: Марко Леонарди, Майкл Паркс, Темуэра Моррисон, Ребекка Гэйхарт, Ара Сели, Ленни Лофтин, Соня Брага, Орландо Джонс, Дэнни Трехо, Джордана Спиро, Кевин Смит ...-Описание:
Такие отчаянные бандиты, как Джонни, рано или поздно оказываются на виселице. На этот раз Джонни повезло: в безумной перестрелке таинственный незнакомец спасает его от смерти, и он бежит, похитив дочь своего палача — Эсмеральду. Взбешенный и опозоренный, палач бросается в погоню. И когда возмездие было почти неизбежным, яростные противники оказываются перед лицом общей угрозы, способной изменить все. И навсегда…-Доп. информация:
IMDb: 4,7/10
КиноПоиск: 5.339/10
MPAA:R
16+ Детям до 17 лет обязательно присутствие родителей-Качество: BDRip(720p)
Формат: MKV/AVC (Matroska)
Видео кодек: AVC/х264
Аудио кодек: AC3, DTS
Видео: AVC, 1280x692, 23.976 fps, 8 200 kbps , 0.386 bits/pixel ...
Аудио №1: Русский, AC3, 5.1 ch (L,C,R,l,r) + LFE, 48.0 KHz, 384 kbps avg | закадровый, многоголосый
Аудио №2: Русский, AC3, 5.1 ch (L,C,R,l,r) + LFE, 48.0 KHz, 384 kbps avg | закадровый, одноголосый
Аудио №3: Английский, DTS, 5.1 ch (L,C,R,l,r) + LFE, 48.0 KHz, 1510 kbps | Оригинал
Субтитры №1: Русские, SRT (full/полные) - отключены
Субтитры №2: Английские, SRT (full/полные) - отключен-

MediaInfo

General
Unique ID : 176186188818895529854096022878536156729 (0x848C39C662C5665F9147232C3CAD4639)
Complete name : D:\Torent\От заката до рассвета 1-3\From.Dusk.Till.Dawn.3.1999.720p.BluRay.Rus.Eng.mkv
Format : Matroska
Format version : Version 4 / Version 2
File size : 6.81 GiB
Duration : 1h 33mn
Overall bit rate : 10.5 Mbps
Encoded date : UTC 2013-05-17 18:34:42
Writing application : mkvmerge v6.0.0 ('Coming Up For Air') built on Jan 20 2013 09:52:00
Writing library : libebml v1.3.0 + libmatroska v1.4.0
Attachment : Yes
Video
ID : 1
Format : AVC
Format/Info : Advanced Video Codec
Format profile : [email protected]
Format settings, CABAC : Yes
Format settings, ReFrames : 8 frames
Codec ID : V_MPEG4/ISO/AVC
Duration : 1h 33mn
Bit rate : 8 200 Kbps
Width : 1 280 pixels
Height : 692 pixels
Display aspect ratio : 1.85:1
Frame rate : 23.976 fps
Color space : YUV
Chroma subsampling : 4:2:0
Bit depth : 8 bits
Scan type : Progressive
Bits/(Pixel*Frame) : 0.386
Stream size : 5.19 GiB (76%)
Title : From Dusk Till Dawn 3: The Hangman's Daughter (1999)
Writing library : x264 core 122 r2184kMod 5c85e0a
Encoding settings : cabac=1 / ref=8 / deblock=1:-3:-3 / analyse=0x3:0x113 / me=umh / subme=11 / psy=1 / fade_compensate=0.00 / psy_rd=0.90:0.08 / mixed_ref=1 / me_range=40 / chroma_me=1 / trellis=2 / 8x8dct=1 / cqm=0 / deadzone=21,11 / fast_pskip=0 / chroma_qp_offset=-3 / threads=6 / sliced_threads=0 / nr=0 / decimate=0 / interlaced=0 / bluray_compat=0 / constrained_intra=0 / bframes=8 / b_pyramid=2 / b_adapt=2 / b_bias=0 / direct=3 / weightb=1 / open_gop=0 / weightp=2 / keyint=250 / keyint_min=23 / scenecut=45 / intra_refresh=0 / rc_lookahead=125 / rc=2pass / mbtree=1 / bitrate=8200 / ratetol=1.0 / qcomp=0.75 / qpmin=10 / qpmax=51 / qpstep=4 / cplxblur=20.0 / qblur=0.5 / vbv_maxrate=50000 / vbv_bufsize=62500 / nal_hrd=none / ip_ratio=1.33 / aq=3:0.98
Language : English
Default : Yes
Forced : No
Color primaries : BT.709-5, BT.1361, IEC 61966-2-4, SMPTE RP177
Transfer characteristics : BT.709-5, BT.1361
Matrix coefficients : BT.709-5, BT.1361, IEC 61966-2-4 709, SMPTE RP177
Audio #1
ID : 2
Format : AC-3
Format/Info : Audio Coding 3
Mode extension : CM (complete main)
Format settings, Endianness : Big
Codec ID : A_AC3
Duration : 1h 33mn
Bit rate mode : Constant
Bit rate : 384 Kbps
Channel(s) : 6 channels
Channel positions : Front: L C R, Side: L R, LFE
Sampling rate : 48.0 KHz
Bit depth : 16 bits
Compression mode : Lossy
Stream size : 255 MiB (4%)
Title : MVO (R5)
Language : Russian
Default : Yes
Forced : No
Audio #2
ID : 3
Format : AC-3
Format/Info : Audio Coding 3
Mode extension : CM (complete main)
Format settings, Endianness : Big
Codec ID : A_AC3
Duration : 1h 33mn
Bit rate mode : Constant
Bit rate : 384 Kbps
Channel(s) : 6 channels
Channel positions : Front: L C R, Side: L R, LFE
Sampling rate : 48.0 KHz
Bit depth : 16 bits
Compression mode : Lossy
Stream size : 255 MiB (4%)
Title : AVO (Андрей Гаврилов)
Language : Russian
Default : No
Forced : No
Audio #3
ID : 4
Format : DTS
Format/Info : Digital Theater Systems
Codec ID : A_DTS
Duration : 1h 33mn
Bit rate mode : Constant
Bit rate : 1 510 Kbps
Channel(s) : 6 channels
Channel positions : Front: L C R, Side: L R, LFE
Sampling rate : 48.0 KHz
Bit depth : 16 bits
Compression mode : Lossy
Stream size : 1 004 MiB (14%)
Title : Original
Language : English
Default : No
Forced : No
Text #1
ID : 5
Format : UTF-8
Codec ID : S_TEXT/UTF8
Codec ID/Info : UTF-8 Plain Text
Language : Russian
Default : No
Forced : No
Text #2
ID : 6
Format : UTF-8
Codec ID : S_TEXT/UTF8
Codec ID/Info : UTF-8 Plain Text
Language : English
Default : No
Forced : No
Menu
00:00:00.000 : en:00:00:00.000
00:06:19.421 : en:00:06:19.421
00:13:52.540 : en:00:13:52.540
00:19:39.470 : en:00:19:39.470
00:27:00.744 : en:00:27:00.744
00:37:33.376 : en:00:37:33.376
00:44:04.767 : en:00:44:04.767
00:52:40.657 : en:00:52:40.657
00:59:07.502 : en:00:59:07.502
01:07:52.443 : en:01:07:52.443
01:19:17.795 : en:01:19:17.795
01:25:50.479 : en:01:25:50.479

Скриншоты







Последний раз редактировалось: Robot-IX (2013-07-04 21:06), всего редактировалось 2 раз(а)

Создавать темы 26-Май-2013 04:41

[Профиль]  [ЛС] 

DMiTRY

Стаж: 6 лет 5 месяцев

Сообщений: 649

Симпатии: 28

Шикарный релиз!

Создавать темы 26-Май-2013 11:21

[Профиль]  [ЛС] 

yura_greek

Стаж: 5 лет 8 месяцев

Сообщений: 59

Симпатии: 6

Ребята Пожалуйста добавте скорость.
КАЧАЮЩИЕ! Вы между собой обменивайтесь, и скорость будет вас удовлетворять, а поставите ограничение Раздачи 0.1 КБ, как например пользователь sveta2005, будете качать очень и очень долго.

Создавать темы 31-Май-2013 18:05

[Профиль]  [ЛС] 

metamod

Стаж: 5 лет 9 месяцев

Сообщений: 22

Симпатии: 1

Я не знал что есть еще 2 и 3 части

Создавать темы 15-Окт-2013 14:06

[Профиль]  [ЛС] 

Boburshox98

Стаж: 3 года 9 месяцев

Сообщений: 10

ребят а можно улучшить скорость до 1мб/с ?

Создавать темы 01-Янв-2014 00:32

[Профиль]  [ЛС] 

otabek142627

Стаж: 4 года 11 месяцев

Сообщений: 8

помогите скачать.буду очень благодарен.

Создавать темы 01-Янв-2014 12:37

[Профиль]  [ЛС] 

Boburshox98

Стаж: 3 года 9 месяцев

Сообщений: 10

скорость добавьте у меня 10кб/с что меня делать ? скорость пожалуйста !!!!!!!!!!!!!!!!!!!!!!!!!!!!!!!!!!!!!!!!!!!!!!!!!!!!!!!!!!!!!!!!!

Создавать темы 01-Янв-2014 13:00

[Профиль]  [ЛС] 

Boburshox98

Стаж: 3 года 9 месяцев

Сообщений: 10

дайте скорости пожалуйста !

Создавать темы 01-Янв-2014 22:29

[Профиль]  [ЛС] 

Boburshox98

Стаж: 3 года 9 месяцев

Сообщений: 10

я эту фильм качал 4 день!

Создавать темы 02-Янв-2014 09:24

[Профиль]  [ЛС] 

Boburshox98

Стаж: 3 года 9 месяцев

Сообщений: 10

кому нужен скорости ?

Создавать темы 02-Янв-2014 09:53

[Профиль]  [ЛС] 

freestyle

Стаж: 5 лет 9 месяцев

Сообщений: 55

Симпатии: 4

ребят почему скорости нет???(((

Создавать темы 29-Янв-2014 12:27

[Профиль]  [ЛС] 

freestyle

Стаж: 5 лет 9 месяцев

Сообщений: 55

Симпатии: 4

кому нужен скорости ?
мне нужна скорость

Создавать темы 29-Янв-2014 15:46

[Профиль]  [ЛС] 

freestyle

Стаж: 5 лет 9 месяцев

Сообщений: 55

Симпатии: 4

дайте скорости на 54 % остановился

Создавать темы 05-Фев-2014 15:04

[Профиль]  [ЛС] 

Angryt

Стаж: 4 года 3 месяца

Сообщений: 16

Симпатии: 1

дай скорости плзззз

Создавать темы 10-Фев-2014 14:17

[Профиль]  [ЛС] 

freestyle

Стаж: 5 лет 9 месяцев

Сообщений: 55

Симпатии: 4

скорости дайте 2 % осталось докачать

Создавать темы 03-Мар-2014 21:44

[Профиль]  [ЛС] 
Показать сообщения:    
Ответить на тему

Текущее время: 23-Окт 03:54

Часовой пояс: UTC + 5



Вы не можете начинать темы
Вы не можете отвечать на сообщения
Вы не можете редактировать свои сообщения
Вы не можете удалять свои сообщения
Вы не можете голосовать в опросах
Вы не можете прикреплять файлы к сообщениям
Вы не можете скачивать файлы