Хеллбой II: Золотая армия / Hellboy II: The Golden Army (Гильермо дель Торо) [2008 г., Боевик, Приключения, Фэнтези, BDRip 720p]

Ответить на тему
 

Nosferatu ®

Стаж: 4 года 8 месяцев

Сообщений: 79

Симпатии: 5

Хеллбой II: Золотая армия
Hellboy II: The Golden Army
- -
Год выпуска: 2008
Страна: Германия, США
Жанр: Боевик, Приключения, Фэнтези
Продолжительность: 01:59:48
Перевод: Профессиональный (многоголосый, закадровый)-Режиссер: Гильермо дель Торо-В ролях:
Анна Уолтон, Даг Джонс, Джеймс Додд, Джефри Тэмбор, Джон Александр, Джон Хёрт, Люк Госс, Рон Перлман, Сет МакФарлейн, Сэльма Блэр-Описание:
После того как древнее перемирие между человечеством и тайным миром было нарушено, на Земле вот-вот разверзнется ад. Безжалостный лидер, вхожий в оба мира, бросает вызов своей крови и пробуждает на свет неодолимую армию чудовищ. Настало время самому Хэллбою сразиться с беспощадным диктатором и его воинами. Вместе со своей пополняющей ряды командой «Бюро Паранормальных Исследований и Развития» он будет бороздить границы двух миров — нашего и скрытого, где самые невероятные существа обретают плоть. Хэллбою, порожденному обоими мирами, но не принадлежащему ни одному из них, предстоит выбирать между жизнью, которую он знает, и неизвестностью новой судьбы-Доп. информация: Бюджет: $85 000 000-Качество: BDRip 720p
Формат: MKV
Видео кодек: AVC
Аудио кодек: AC3
Видео: AVC at 4490 Кбит/сек, 1280 x 688 (1.860) at 23.976 fps
Аудио: AC-3 at 384 Кбит/сек, 6 канала(ов), 48,0 КГц
Subtitle: UTF-8 English

Media Info

Format : Matroska
Format version : Version 1
File size : 4.08 GiB
Duration : 1h 59mn
Overall bit rate : 4 877 Kbps
Encoded date : UTC 2008-11-02 12:34:08
Writing application : mkvmerge v2.2.0 ('Turn It On Again') built on Mar 4 2008 12:58:26
Writing library : libebml v0.7.7 + libmatroska v0.8.1
Video
ID : 1
Format : AVC
Format/Info : Advanced Video Codec
Format profile : High@L4.1
Format settings, CABAC : Yes
Format settings, ReFrames : 5 frames
Codec ID : V_MPEG4/ISO/AVC
Duration : 1h 59mn
Bit rate : 4 490 Kbps
Width : 1 280 pixels
Height : 688 pixels
Display aspect ratio : 1.85:1
Frame rate mode : Constant
Frame rate : 23.976 fps
Color space : YUV
Chroma subsampling : 4:2:0
Bit depth : 8 bits
Scan type : Progressive
Bits/(Pixel*Frame) : 0.213
Stream size : 3.68 GiB (90%)
Writing library : x264 core 65 r998M 6768543
Encoding settings : cabac=1 / ref=5 / deblock=1:-3:-3 / analyse=0x3:0x113 / me=umh / subme=6 / psy_rd=1.0:0.0 / mixed_ref=1 / me_range=16 / chroma_me=1 / trellis=1 / 8x8dct=1 / cqm=2 / deadzone=21,11 / chroma_qp_offset=-2 / threads=6 / nr=0 / decimate=1 / mbaff=0 / bframes=3 / b_pyramid=1 / b_adapt=2 / b_bias=0 / direct=3 / wpredb=1 / keyint=250 / keyint_min=25 / scenecut=40(pre) / rc=2pass / bitrate=4490 / ratetol=1.0 / qcomp=0.60 / qpmin=10 / qpmax=51 / qpstep=4 / cplxblur=20.0 / qblur=0.5 / vbv_maxrate=50000 / vbv_bufsize=50000 / ip_ratio=1.40 / pb_ratio=1.30 / aq=1:1.00
Language : English
Default : Yes
Forced : No
Audio
ID : 2
Format : AC-3
Format/Info : Audio Coding 3
Mode extension : CM (complete main)
Format settings, Endianness : Big
Codec ID : A_AC3
Duration : 1h 59mn
Bit rate mode : Constant
Bit rate : 384 Kbps
Channel(s) : 6 channels
Channel positions : Front: L C R, Side: L R, LFE
Sampling rate : 48.0 KHz
Bit depth : 16 bits
Compression mode : Lossy
Stream size : 329 MiB (8%)
Title : AC3 - 384 Kbps
Language : Russian
Default : Yes
Forced : No
Text
ID : 3
Format : UTF-8
Codec ID : S_TEXT/UTF8
Codec ID/Info : UTF-8 Plain Text
Language : English
Default : Yes
Forced : No

Скриншоты










Последний раз редактировалось: Nosferatu (2013-05-28 11:08), всего редактировалось 1 раз

Создавать темы 26-Май-2013 21:15

[Профиль]  [ЛС] 

yankee

Стаж: 7 лет

Сообщений: 19

Спасибо, кино просто супер

Создавать темы 26-Май-2013 21:42

[Профиль]  [ЛС] 

Nosferatu ®

Стаж: 4 года 8 месяцев

Сообщений: 79

Симпатии: 5

Спасибо, кино просто супер
всегда пожалуйста)) cb

Создавать темы 26-Май-2013 21:49

[Профиль]  [ЛС] 

Топик был перенесен из форума Зарубежное кино в форум HD-AVC

ziyod

Создавать темы 28-Май-2013 11:10

 

Daimos

Стаж: 5 лет 3 месяца

Сообщений: 35

Симпатии: 8

Спасибо большое, а нет ли первой части в таком же качестве?

Создавать темы 29-Июн-2013 20:57

[Профиль]  [ЛС] 

СтАсИкОс

Стаж: 6 лет 10 месяцев

Сообщений: 314

Симпатии: 20

Daimos, Хеллбой. Дилогия / Hellboy. Dilogy (Гильермо дель Торо) [2004,2008 г.г., фэнтези, боевик, приключения, BDRip]

Создавать темы 29-Июн-2013 21:14

[Профиль]  [ЛС] 
Показать сообщения:    
Ответить на тему

Текущее время: 25-Ноя 01:26

Часовой пояс: UTC + 5



Вы не можете начинать темы
Вы не можете отвечать на сообщения
Вы не можете редактировать свои сообщения
Вы не можете удалять свои сообщения
Вы не можете голосовать в опросах
Вы не можете прикреплять файлы к сообщениям
Вы не можете скачивать файлы