Загрузка. Подлинная история интернета: Война Браузеров / Download: The True Story Of The Internet. Browser war (Discovery Science) [2008 г., Документальный, SatRip]

Ответить на тему
 

Habibullo ®

Стаж: 5 лет 9 месяцев

Сообщений: 72

Симпатии: 16

Загрузка. Подлинная история интернета: Война Браузеров / Download: The True Story Of The Internet. Browser war- -Год выпуска: 2008
Жанр: Документальный
Продолжительность: 00:44:55-Перевод: профессиональный одноголосный-Телеканал: Discovery Science-Описание: После появления интернета началась гонка за использование его невероятного потенциала. Фильм посвящен битве браузеров: кто будет безраздельно царствовать во всемирной паутине? Очень интересное видео об интернете, вы точно узнаете кое-что новое о нем!-Качество: SatRip
Формат: AVI
Видео кодек: XviD
Аудио кодек: MP3 2.1-Видео: XviD, 640x432, 952 Kbps, 25.000 fps
Аудио: MP3, 48.0 KHz 2 ch, 128 Кбит/сек

Media info

General
Format : DivX
Format/Info : Hack of AVI
File size : 350 MiB
Duration : 44mn 55s
Overall bit rate : 1 090 Kbps
Video #0
ID : 0
Format : MPEG-4 Visual
Format settings, BVOP : 1
Format settings, QPel : No
Format settings, GMC : No warppoints
Format settings, Matrix : Default (H.263)
Muxing mode : Packed bitstream
Codec ID : XVID
Codec ID/Hint : XviD
Duration : 44mn 55s
Bit rate : 952 Kbps
Width : 640 pixels
Height : 432 pixels
Display aspect ratio : 3:2
Frame rate : 25.000 fps
Color space : YUV
Chroma subsampling : 4:2:0
Bit depth : 8 bits
Scan type : Progressive
Compression mode : Lossy
Bits/(Pixel*Frame) : 0.138
Stream size : 306 MiB (87%)
Title : Main
Writing library : DivX 6.8.0 (UTC 2007-12-04)
Audio #1
ID : 1
Format : MPEG Audio
Format version : Version 1
Format profile : Layer 3
Mode : Joint stereo
Mode extension : MS Stereo
Codec ID : 55
Codec ID/Hint : MP3
Duration : 44mn 55s
Bit rate mode : Constant
Bit rate : 128 Kbps
Channel(s) : 2 channels
Sampling rate : 48.0 KHz
Compression mode : Lossy
Stream size : 41.1 MiB (12%)
Alignment : Split accross interleaves
Interleave, duration : 40 ms (1.00 video frame)
Interleave, preload duration : 500 ms
Title : Audio

Скриншоты



Последний раз редактировалось: Habibullo (2013-12-02 14:53), всего редактировалось 5 раз(а)

Создавать темы 27-Май-2013 07:51

[Профиль]  [ЛС] 

alexey.555

Стаж: 5 лет 6 месяцев

Сообщений: 137

Симпатии: 22

Это всего лишь одна серия из четырехсерийного фильма под названием "Загрузка".

Создавать темы 27-Май-2013 19:25

[Профиль]  [ЛС] 

Habibullo ®

Стаж: 5 лет 9 месяцев

Сообщений: 72

Симпатии: 16

Нет! вы ошибаетесь это другой фильм и там другой автор!

Создавать темы 27-Май-2013 21:33

[Профиль]  [ЛС] 

Топик был перенесен из форума Документальные фильмы и телепередачи в форум Discovery

ziyod

Создавать темы 28-Май-2013 18:28

 
Показать сообщения:    
Ответить на тему

Текущее время: 23-Окт 16:32

Часовой пояс: UTC + 5



Вы не можете начинать темы
Вы не можете отвечать на сообщения
Вы не можете редактировать свои сообщения
Вы не можете удалять свои сообщения
Вы не можете голосовать в опросах
Вы не можете прикреплять файлы к сообщениям
Вы не можете скачивать файлы