Интернет - контроль или свобода / Internet - control or freedom (Discovery Science) [2012 г., Документальный, SatRip]

Ответить на тему
 

Habibullo ®

Стаж: 5 лет 8 месяцев

Сообщений: 72

Симпатии: 16

Интернет - контроль или свобода / Internet - control or freedom- -Год выпуска: 2012
Жанр: Документальный
Продолжительность: 00:44:14
-
Перевод: профессиональный одноголосный-Телеканал: Discovery Science-Описание: Ни одна страна или государственный орган не управляют Интернетом. Благодаря такой свободе «паутина» выросла в глобальную силу – чем она и является сегодня. В некоторых случаях она даже стимулирует демократические движения. Но все это вскоре может сильно измениться.-Качество: SatRip
Формат: AVI
Видео кодек: XviD
Аудио кодек: MP3-Видео: 704x480, 968 Kbps, 25.000 fps
Аудио: 2 channels, 48.0 KHz, 128 Кбит/сек-

Media info

General
Format : DivX
Format/Info : Hack of AVI
File size : 350 MiB
Duration : 44mn 14s
Overall bit rate : 1 106 Kbps
Video #0
ID : 0
Format : MPEG-4 Visual
Format settings, BVOP : 1
Format settings, QPel : No
Format settings, GMC : No warppoints
Format settings, Matrix : Default (H.263)
Muxing mode : Packed bitstream
Codec ID : XVID
Codec ID/Hint : XviD
Duration : 44mn 14s
Bit rate : 968 Kbps
Width : 704 pixels
Height : 480 pixels
Display aspect ratio : 3:2
Frame rate : 25.000 fps
Standard : NTSC
Color space : YUV
Chroma subsampling : 4:2:0
Bit depth : 8 bits
Scan type : Progressive
Compression mode : Lossy
Bits/(Pixel*Frame) : 0.115
Stream size : 306 MiB (88%)
Title : Main
Writing library : DivX 6.8.0 (UTC 2007-12-04)
Audio #1
ID : 1
Format : MPEG Audio
Format version : Version 1
Format profile : Layer 3
Mode : Joint stereo
Mode extension : MS Stereo
Codec ID : 55
Codec ID/Hint : MP3
Duration : 44mn 14s
Bit rate mode : Constant
Bit rate : 128 Kbps
Channel(s) : 2 channels
Sampling rate : 48.0 KHz
Compression mode : Lossy
Stream size : 40.5 MiB (12%)
Alignment : Split accross interleaves
Interleave, duration : 40 ms (1.00 video frame)
Interleave, preload duration : 500 ms
Title : Audio
-

Скриншоты



Последний раз редактировалось: Habibullo (2013-06-02 00:59), всего редактировалось 2 раз(а)

Создавать темы 27-Май-2013 08:23

[Профиль]  [ЛС] 

brr

Стаж: 5 лет 5 месяцев

Сообщений: 38

Проверять будете?

Создавать темы 27-Май-2013 15:36

[Профиль]  [ЛС] 

Топик был перенесен из форума Документальные фильмы и телепередачи в форум Discovery

ziyod

Создавать темы 28-Май-2013 18:31

 
Показать сообщения:    
Ответить на тему

Текущее время: 20-Сен 16:03

Часовой пояс: UTC + 5



Вы не можете начинать темы
Вы не можете отвечать на сообщения
Вы не можете редактировать свои сообщения
Вы не можете удалять свои сообщения
Вы не можете голосовать в опросах
Вы не можете прикреплять файлы к сообщениям
Вы не можете скачивать файлы