Южный Парк / South Park 16 Сезон [1-14 из 14 серий] (Трей Паркер, Мэтт Стоун) [2012 г., мультсериал, комедия, пародия, WEB-DLRip]

Страницы :  1, 2  След.

Ответить на тему
 

vanfank ®

Стаж: 4 года 5 месяцев

Сообщений: 141

Симпатии: 5

Южный Парк / South Park
Год выпуска: 2012
Страна: США
Жанр: мультсериал, комедия, пародия
Продолжительность: ~00:21:00
Перевод: Любительский (одноголосый)
Режиссер: Трей Паркер, Мэтт Стоун
В ролях: Мэтт Стоун, Трей Паркер, Мэри Бергман, Элиза Шнайдер, Мона Маршалл, Эйприл Стюарт, Джон Хэнсен, Дженнифер Хоуэлл, Эдриен Бирд
Описание: «Южный парк» (англ. South Park) — американский мультсериал, созданный Мэттом Стоуном и Треем Паркером. Иногда название переводится также как «Саут-Парк» или «Саус-Парк». Выпускается кабельным телеканалом Comedy Central с 1997 года. Основу сюжета составляют приключения четырёх мальчиков и их друзей, живущих в маленьком городке Саут-Парк, штат Колорадо. Сериал высмеивает недостатки американской культуры и текущие мировые события, а также подвергает критике множество глубоких убеждений и табу посредством пародии и чёрного юмора. «Южный парк» выходит поздно вечером и позиционируется как мультфильм для взрослых..........
Cтранноватые истории из жизни нескольких третьеклашек из маленького городка Саус Парк в штате Колорадо. Это комедия с элементами гротеска, фарса, пародии, обильно сдобренная музыкой и той самой плохо определяемой словами чертовщиной…
Качество: WEB-DLRip
Формат: MKV
Видео кодек: AVC
Аудио кодек: AC3
Видео: AVC, 1280x718, 23.976 fps, 2 487 kbps
Аудио: AC3, 48 kHz, 2 ch, 192.00 kbps | Русский (любительский одноголосый) [L0cDoG]
Аудио 2: AC3, 48 kHz, 2 ch, 192.00 kbps | Английский
Перевод: yazzzzzva

Список Серии

16.01 Перевернутая наездница / Reverse Cowgirl
16.02 Деньги в обмен на золото / Cash For Gold
16.03 ФейсХиллинг / Faith Hilling
16.04 Жидокабра / Jewpacabra
16.05 Баттерсбол / Butterballs
16.06 Лучше бы я никогда не ездил на канатную дорогу / I Should Have Never Gone Ziplining
16.07 Картман находит любовь / Cartman Finds Love
16.08 Сарказмобол / Sarcastaball
16.09 П однимая планку / Raising the bar
16.10 Внебезопасность / Insecurity
16.11 Голос предков / Going Native
16.12 Кошмар на Фейстейм / A Nightmare on Facetime
16.13 A Cause for Applause / Повод для Аблосдесментов
16.14 Obama Wins! / Обама Выграл!

MediaInfo

General
Format : Matroska
Format version : Version 2
File size : 465 MiB
Duration : 22mn 11s
Overall bit rate : 2 930 Kbps
Encoded date : UTC 2012-03-17 13:02:31
Writing application : mkvmerge v4.1.1 ('Bouncin' Back') сборка от Jul 3 2010 22:54:08
Writing library : libebml v1.0.0 + libmatroska v1.0.0
Video
ID : 1
Format : AVC
Format/Info : Advanced Video Codec
Format profile : [email protected]
Format settings, CABAC : No
Format settings, ReFrames : 2 frames
Codec ID : V_MPEG4/ISO/AVC
Duration : 22mn 11s
Bit rate : 2 487 Kbps
Width : 1 280 pixels
Height : 718 pixels
Display aspect ratio : 16:9
Frame rate : 23.976 fps
Color space : YUV
Chroma subsampling : 4:2:0
Bit depth : 8 bits
Scan type : Progressive
Bits/(Pixel*Frame) : 0.113
Stream size : 395 MiB (85%)
Language : English
Default : Yes
Forced : No
Color primaries : BT.709-5, BT.1361, IEC 61966-2-4, SMPTE RP177
Transfer characteristics : BT.709-5, BT.1361
Matrix coefficients : BT.709-5, BT.1361, IEC 61966-2-4 709, SMPTE RP177
Audio #1
ID : 2
Format : AC-3
Format/Info : Audio Coding 3
Mode extension : CM (complete main)
Muxing mode : Header stripping
Codec ID : A_AC3
Duration : 22mn 11s
Bit rate mode : Constant
Bit rate : 192 Kbps
Channel(s) : 2 channels
Channel positions : Front: L R
Sampling rate : 48.0 KHz
Bit depth : 16 bits
Compression mode : Lossy
Stream size : 30.5 MiB (7%)
Title : RUS (Nice-Media)
Language : Russian
Default : Yes
Forced : No
Audio #2
ID : 3
Format : AC-3
Format/Info : Audio Coding 3
Mode extension : CM (complete main)
Muxing mode : Header stripping
Codec ID : A_AC3
Duration : 22mn 11s
Bit rate mode : Constant
Bit rate : 192 Kbps
Channel(s) : 2 channels
Channel positions : Front: L R
Sampling rate : 48.0 KHz
Bit depth : 16 bits
Compression mode : Lossy
Stream size : 30.5 MiB (7%)
Title : ENG
Language : English
Default : No
Forced : No

Скришоты



Еще Сезоны

Южный Парк 1-15 сезоны + полнометражка тут от IIpu3pak


Последний раз редактировалось: vanfank (2013-07-28 12:46), всего редактировалось 2 раз(а)

Создавать темы 27-Май-2013 12:32

[Профиль]  [ЛС] 

vanfank ®

Стаж: 4 года 5 месяцев

Сообщений: 141

Симпатии: 5

я на раздаче!


Последний раз редактировалось: vanfank (2013-05-28 11:40), всего редактировалось 1 раз

Создавать темы 27-Май-2013 12:53

[Профиль]  [ЛС] 

vanfank ®

Стаж: 4 года 5 месяцев

Сообщений: 141

Симпатии: 5

Будут проблемы пишите в лс или на мыло!


Последний раз редактировалось: vanfank (2013-06-08 16:13), всего редактировалось 3 раз(а)

Создавать темы 27-Май-2013 13:57

[Профиль]  [ЛС] 

vanfank ®

Стаж: 4 года 5 месяцев

Сообщений: 141

Симпатии: 5

НЕ УХОДИТЕ С РАЗДАЧИ! ЧЕМ БОЛЬШЕ НА РАЗДАЧЕ, ТЕМ БОЛЬШЕ СКАЧАВЩИХ!


Последний раз редактировалось: vanfank (2013-06-09 20:11), всего редактировалось 2 раз(а)

Создавать темы 27-Май-2013 15:26

[Профиль]  [ЛС] 

x34haker

Стаж: 5 лет 8 месяцев

Сообщений: 34

круто но 7 гигов ух осилю ли

Создавать темы 27-Май-2013 16:16

[Профиль]  [ЛС] 

namara

Стаж: 5 лет 6 месяцев

Сообщений: 4

Для .mkv это нормальный объем. У меня есть 7 первых серий, занимают 3,75Gb.
Когда модераторы проверят, я с удовольствием докачаю остальные 7 серий. Спасибо.

Создавать темы 28-Май-2013 17:08

[Профиль]  [ЛС] 

vanfank ®

Стаж: 4 года 5 месяцев

Сообщений: 141

Симпатии: 5

проверели!

Создавать темы 28-Май-2013 19:21

[Профиль]  [ЛС] 

Голимый

Стаж: 5 лет

Сообщений: 13

Раздавать будете? Ато по нулям скачанное :(

Создавать темы 30-Май-2013 03:31

[Профиль]  [ЛС] 

vanfank ®

Стаж: 4 года 5 месяцев

Сообщений: 141

Симпатии: 5

я раздаю это у вас проблемы

Создавать темы 30-Май-2013 16:48

[Профиль]  [ЛС] 

vanfank ®

Стаж: 4 года 5 месяцев

Сообщений: 141

Симпатии: 5

Раздам до первых 2 или 3, потом уйду с раздачи!


Последний раз редактировалось: vanfank (2013-06-06 14:35), всего редактировалось 1 раз

Создавать темы 04-Июн-2013 12:26

[Профиль]  [ЛС] 

vanfank ®

Стаж: 4 года 5 месяцев

Сообщений: 141

Симпатии: 5

Скачаете не уходите с раздачи! СКАЧАЛ? РАЗДАВАЙ!


Последний раз редактировалось: vanfank (2013-06-08 19:02), всего редактировалось 2 раз(а)

Создавать темы 05-Июн-2013 10:56

[Профиль]  [ЛС] 

vanfank ®

Стаж: 4 года 5 месяцев

Сообщений: 141

Симпатии: 5

Подождите пару минут торрент-клиент проверят все скачки и раздачи! опять свет выключил! ну ладно раздам еще где-то 5 или более

Создавать темы 06-Июн-2013 14:35

[Профиль]  [ЛС] 

Данил

Стаж: 4 года 5 месяцев

Сообщений: 35

спасибо за релиз

Создавать темы 08-Июл-2013 13:18

[Профиль]  [ЛС] 

Marlon

Стаж: 4 года 5 месяцев

Сообщений: 11

Обожаю этот Sheet)) Пацаны есть раздача????

Создавать темы 18-Июл-2013 23:34

[Профиль]  [ЛС] 

vanfank ®

Стаж: 4 года 5 месяцев

Сообщений: 141

Симпатии: 5

спасибо за релиз
Всегда пожалуйста

Создавать темы 22-Июл-2013 17:40

[Профиль]  [ЛС] 
Показать сообщения:    
Ответить на тему

Текущее время: 22-Окт 18:58

Часовой пояс: UTC + 5



Вы не можете начинать темы
Вы не можете отвечать на сообщения
Вы не можете редактировать свои сообщения
Вы не можете удалять свои сообщения
Вы не можете голосовать в опросах
Вы не можете прикреплять файлы к сообщениям
Вы не можете скачивать файлы