Государственный Эрмитаж / The State Hermitage Museum 3D (Екатерина Шахунова) [2011 г., Документальный, Видовой, Искусство, BDRip]

Ответить на тему
 

rsanjar ®

Стаж: 6 лет 9 месяцев

Сообщений: 32

Симпатии: 3

Государственный Эрмитаж / The State Hermitage Museum 3D
Год выпуска: 2011
Страна: Россия
Жанр: Документальный, Видовой, Искусство
Продолжительность: 00:41:49
Перевод: Профессиональный (одноголосый)
Режиссер: Екатерина Шахунова
В ролях: Иван Иванович Краско (Народный артист РФ)
Описание: Самый полный фильм о крупнейшем в России музее - Государственном Эрмитаже. Вы сможете насладиться его знаменитыми шедеврами и изумительными интерьерами великолепных дворцов; узнаете, как возник музейный комплекс. Познакомитесь с филиалами музея - Зимним Дворцом Петра I, Меншиковским дворцом, с экспозициями Генерального штаба и новым фондохранилищем Эрмитажа. Настоящей жемчужиной фильма стали уникальные кадры, снятые на крыше Эрмитажа в белую ночь.
Качество: BDRip
Формат: MKV
Формат 3D: Half OverUnder / Вертикальная анаморфная стереопара
Видео кодек: Другой MPEG4
Аудио кодек: AC3
Видео: AVC / 23,976 fps / 1920х1080p / 5171 Kbps
Аудио#1: Русский / AC3 / 48 KHz / 5.1 ch / 640 Kbps
Аудио#2: Английский / AC3 / 48 KHz / 5.1 ch / 640 Kbps

Скриншоты



Медиаинфо

General
Complete name : D:\лучшие и 3D фильмы\3D MOVIES\TheStateHermitageMuseum(3D)2011.halfOU.mkv
Format : Matroska
File size : 1.92 GiB
Duration : 41mn 49s
Overall bit rate : 6 582 Kbps
Movie name : Государственный Эрмитаж (3D) 2011 (ash61)
Encoded date : UTC 2012-04-04 03:39:08
Writing application : mkvmerge v3.4.0 ('Rapunzel') сборка от May 15 2010 09:38:20
Writing library : libebml v0.8.0 + libmatroska v0.9.0
Video
ID : 1
Format : AVC
Format/Info : Advanced Video Codec
Format profile : [email protected]
Format settings, CABAC : Yes
Format settings, ReFrames : 4 frames
Muxing mode : Container [email protected]
Codec ID : V_MPEG4/ISO/AVC
Duration : 41mn 47s
Bit rate : 5 171 Kbps
Width : 1 920 pixels
Height : 1 080 pixels
Display aspect ratio : 16:9
Frame rate : 23.976 fps
Resolution : 24 bits
Colorimetry : 4:2:0
Scan type : Progressive
Bits/(Pixel*Frame) : 0.104
Stream size : 1.51 GiB (78%)
Title : BDrip by ash61
Writing library : x264 core 119 r2106 07efeb4
Encoding settings : cabac=1 / ref=4 / deblock=1:-3:-3 / analyse=0x3:0x113 / me=umh / subme=9 / psy=1 / psy_rd=1.00:0.15 / mixed_ref=1 / me_range=16 / chroma_me=1 / trellis=2 / 8x8dct=1 / cqm=0 / deadzone=21,11 / fast_pskip=1 / chroma_qp_offset=-3 / threads=3 / sliced_threads=0 / nr=0 / decimate=1 / interlaced=0 / bluray_compat=0 / constrained_intra=0 / bframes=6 / b_pyramid=2 / b_adapt=2 / b_bias=0 / direct=3 / weightb=1 / open_gop=0 / weightp=2 / keyint=250 / keyint_min=23 / scenecut=40 / intra_refresh=0 / rc_lookahead=60 / rc=crf / mbtree=1 / crf=18.0 / qcomp=0.70 / qpmin=0 / qpmax=69 / qpstep=4 / vbv_maxrate=40000 / vbv_bufsize=40000 / crf_max=0.0 / nal_hrd=none / ip_ratio=1.40 / aq=1:0.70
Audio #1
ID : 2
Format : AC-3
Format/Info : Audio Coding 3
Codec ID : A_AC3
Duration : 41mn 49s
Bit rate mode : Constant
Bit rate : 640 Kbps
Channel(s) : 6 channels
Channel positions : Front: L C R, Surround: L R, LFE
Sampling rate : 48.0 KHz
Stream size : 191 MiB (10%)
Language : Russian
Audio #2
ID : 3
Format : AC-3
Format/Info : Audio Coding 3
Codec ID : A_AC3
Duration : 41mn 49s
Bit rate mode : Constant
Bit rate : 640 Kbps
Channel(s) : 6 channels
Channel positions : Front: L C R, Surround: L R, LFE
Sampling rate : 48.0 KHz
Stream size : 191 MiB (10%)
Language : English
Menu
00:00:00.000 : :1
00:06:33.268 : :2
00:13:18.256 : :3
00:20:40.114 : :4
00:26:29.296 : :5
00:34:13.843 : :6


Последний раз редактировалось: rsanjar (2013-05-28 11:14), всего редактировалось 1 раз

Создавать темы 27-Май-2013 17:41

[Профиль]  [ЛС] 

Sirius13

Стаж: 5 лет 9 месяцев

Сообщений: 8

Стал на раздачу.

Создавать темы 20-Окт-2013 13:48

[Профиль]  [ЛС] 
Показать сообщения:    
Ответить на тему

Текущее время: 19-Ноя 12:02

Часовой пояс: UTC + 5



Вы не можете начинать темы
Вы не можете отвечать на сообщения
Вы не можете редактировать свои сообщения
Вы не можете удалять свои сообщения
Вы не можете голосовать в опросах
Вы не можете прикреплять файлы к сообщениям
Вы не можете скачивать файлы