Шерлок Холмс-Шерлок Холмс: Игра теней / Sherlock Holmes-Sherlock Holmes: A Game of Shadows (Гай Ричи) [2009-2011 г., боевик, триллер, драма, комедия, криминал, детектив, приключения,, HDRip]

Тема закрыта
 

igor1968 ®

Стаж: 5 лет 6 месяцев

Сообщений: 366

Симпатии: 197

Шерлок Холмс-Шерлок Холмс: Игра теней / Sherlock Holmes-Sherlock Holmes: A Game of Shadows ( ДИЛОГИЯ )

Шерлок Холмс

Шерлок Холмс/Sherlock Holmes
Год выпуска:2009
Страна:
Жанр: боевик, триллер, драма, комедия, криминал, детектив, приключения,
Продолжительность: (02:08:24.709)
Перевод: Профессиональный (полное дублирование)
Режиссер: Гай Ричи
В ролях: В главных ролях: Роберт Дауни мл. Джуд Лоу Рэйчел МакАдамс Марк Стронг Эдди Марсан Роберт Мэйллет
Джеральдин Джеймс Келли Райлли Уильям Хьюстон Ганс Мэтисон
Роли Дублировали: Владимир Зайцев Василий Дахненко Рамиля Искандер Алексей Рязанцев Андрей Казанцев ...
Величайший в истории сыщик Шерлок Холмс вместе со своим верным соратником Ватсоном вступают в схватку, требующую нешуточной физической и умственной подготовки, ведь их враг представляет угрозу для всего Лондона.-Премьера
24 декабря 2009, ...
Премьера
31 декабря 2009, «Каро-Премьер»- -Качество: HDRip
Формат: AVI
Видео кодек: XviD
Видео: 656x368 (1.78:1), 23.976 fps, XviD build 50 ~675 kbps avg, 0.12 bit/pixel
Аудио: 48 kHz, MPEG Layer 3, 2 ch, ~128.00 kbps avg-

MediaInfo-Sherlok Holms

Доп. информация: General
Complete name : Sherlok_Holms_[torrents.ru]_by_Scarabey.avi
Format : AVI
Format/Info : Audio Video Interleave
File size : 747 MiB
Duration : 2h 8mn
Overall bit rate : 813 Kbps
Writing application : VirtualDubMod 1.5.10.2 (build 2540/release)
Writing library : VirtualDubMod build 2540/release
Video
ID : 0
Format : MPEG-4 Visual
Format profile : Advanced [email protected]
Format settings, BVOP : 1
Format settings, QPel : No
Format settings, GMC : No warppoints
Format settings, Matrix : Default (MPEG)
Codec ID : XVID
Codec ID/Hint : XviD
Duration : 2h 8mn
Bit rate : 676 Kbps
Width : 656 pixels
Height : 368 pixels
Display aspect ratio : 16:9
Frame rate : 23.976 fps
Color space : YUV
Chroma subsampling : 4:2:0
Bit depth : 8 bits
Scan type : Progressive
Compression mode : Lossy
Bits/(Pixel*Frame) : 0.117
Stream size : 621 MiB (83%)
Writing library : XviD 1.2.1 (UTC 2008-12-04)
Audio
ID : 1
Format : MPEG Audio
Format version : Version 1
Format profile : Layer 3
Codec ID : 55
Codec ID/Hint : MP3
Duration : 2h 8mn
Bit rate mode : Constant
Bit rate : 128 Kbps
Channel(s) : 2 channels
Sampling rate : 48.0 KHz
Compression mode : Lossy
Stream size : 118 MiB (16%)
Alignment : Aligned on interleaves
Interleave, duration : 42 ms (1.00 video frame)
Interleave, preload duration : 504 ms
Writing library : LAME3.97
Encoding settings : -m s -V 4 -q 2 -lowpass 17 -b 128
-

Скриншоты

-

Шерлок Холмс: Игра теней/Sherlock Holmes: A Game of Shadows

Шерлок Холмс: Игра теней/Sherlock Holmes: A Game of Shadows
Год выпуска:2011
Страна:
Жанр: боевик, триллер, драма, комедия, криминал, детектив, приключения,
Продолжительность: 02:08:44.687
Перевод: Профессиональный (полное дублирование)
Режиссер: Гай Ричи
В Ролях: Роберт Дауни мл. Джуд Лоу Нуми Рапас Джаред Харрис Пол Андерсон Стивен Фрай Рэйчел МакАдамс Келли Райлли
Джеральдин Джеймс Эдди Марсан
Роли Дублировали: Владимир Зайцев Василий Дахненко Наталья Грачева Никита Прозоровский Андрей Градов ...
1891 год. В Вене и Страсбурге проходит серия терактов, организованных анархистами или националистами, а по всей Европе происходят таинственные убийства. Шерлок Холмс считает, что за всем этим стоит профессор Джеймс Мориарти — математический гений, автор знаменитых лекций и трудов.- -Премьера
10 декабря 2011, ...
Премьера
29 декабря 2011, «Каро-Премьер»-Качество: HDRip
Формат: AVI
Видео кодек: XviD
Видео: 720x304 (2.37:1), 23.976 fps, XviD build 50 ~1964 kbps avg, 0.37 bit/pixel
Аудио: 48 kHz, AC3 Dolby Digital, 3/2 (L,C,R,l,r) + LFE ch, ~448.00 kbps avg-

MediaInfo-Sherlok.Holms.2

General
Complete name : Sherlok.Holms.2.2011.D.HDRip.2100MB.avi
Format : AVI
Format/Info : Audio Video Interleave
Format profile : OpenDML
File size : 2.18 GiB
Duration : 2h 8mn
Overall bit rate : 2 420 Kbps
Writing application : VirtualDubMod 1.5.10.3 | www.virtualdub-fr.org || (build 2550/release)
Writing library : VirtualDubMod build 2550/release
Video
ID : 0
Format : MPEG-4 Visual
Format profile : Advanced [email protected]
Format settings, BVOP : 1
Format settings, QPel : No
Format settings, GMC : No warppoints
Format settings, Matrix : Custom
Codec ID : XVID
Codec ID/Hint : XviD
Duration : 2h 8mn
Bit rate : 1 960 Kbps
Width : 720 pixels
Height : 304 pixels
Display aspect ratio : 2.35:1
Frame rate : 23.976 fps
Color space : YUV
Chroma subsampling : 4:2:0
Bit depth : 8 bits
Scan type : Progressive
Compression mode : Lossy
Bits/(Pixel*Frame) : 0.373
Stream size : 1.76 GiB (81%)
Writing library : XviD 1.2.1 (UTC 2008-12-04)
Audio
ID : 1
Format : AC-3
Format/Info : Audio Coding 3
Mode extension : CM (complete main)
Format settings, Endianness : Big
Codec ID : 2000
Duration : 2h 8mn
Bit rate mode : Constant
Bit rate : 448 Kbps
Channel(s) : 6 channels
Channel positions : Front: L C R, Side: L R, LFE
Sampling rate : 48.0 KHz
Bit depth : 16 bits
Compression mode : Lossy
Stream size : 413 MiB (19%)
Alignment : Split accross interleaves
Interleave, duration : 42 ms (1.00 video frame)
Interleave, preload duration : 500 ms
-

Скриншоты

-

Создавать темы 28-Май-2013 05:49

[Профиль]  [ЛС] 

ziyod

Стаж: 7 лет 6 месяцев

Сообщений: 367

Симпатии: 60

Второй фильм повтор Шерлок Холмс: Игра теней / Sherlock Holmes: A Game of Shadows (Гай Ричи) [2011 г., боевик, триллер, криминал, детектив, приключения, HDRip] [Лицензия] а первую релизте отдельно.

Создавать темы 28-Май-2013 06:33

[Профиль]  [ЛС] 
Показать сообщения:    
Тема закрыта

Текущее время: 25-Сен 16:33

Часовой пояс: UTC + 5



Вы не можете начинать темы
Вы не можете отвечать на сообщения
Вы не можете редактировать свои сообщения
Вы не можете удалять свои сообщения
Вы не можете голосовать в опросах
Вы не можете прикреплять файлы к сообщениям
Вы не можете скачивать файлы