Красотка (Дмитрий Петрунь) [2013 г., мелодрама, комедия, HDTVRip]

Ответить на тему
 

Sunnat1999 ®

Стаж: 4 года 7 месяцев

Сообщений: 756

Симпатии: 416

Красотка-- Год выпуска: 2013
Жанр: мелодрама, комедия
Продолжительность: 01:30:01-Режиссер: Дмитрий Петрунь-В ролях: Анна Старшенбаум, Илья Носков, Сергей Комаров (II), Наталия Антонова, Игорь Ясулович, Роман Мадянов, Ричард Бондарев, Ангелина Лакатош, Александр Сибирцев, Сергей Серов, Ольга Хохлова, Юрий Бондаренко, Юрий Гумиров, Юлия Ковалева, Анастасия Логинова, Наталья Унгард, Елена Блинникова (II), Александр Федичкин, Михаил Инчин
Описание: Молодому и успешному предпринимателю Кириллу предстоит важный деловой ужин, который может значительно повлиять на его бизнес и принести хорошую прибыль. Только есть одно условие. На этот ужин он должен пригласить свою невесту, с которой еще никого не познакомил. И как назло, пара накануне ссорится. Теперь Кириллу срочно нужна замена и она не заставляет себя ждать. Он знакомится с Лизой она привлекательна и остроумна. Кирилл решает, что она подходит. Если бы он знал с кем он связывается, он поостерегся пускать ее в свою жизнь...-Доп. информация:
Премьера (РФ): 26 мая 2013
-Качество: HDTVRip
Формат: AVI
Видео кодек: XviD
Аудио кодек: AC3
Видео: XviD, 25 fps, 720x400, ~ 1969 Кбит/с
Аудио: AC3, 48 kHz, 2ch, 192 Кбит/с

Медиаинфо

Общее
Полное имя : Krasotka.HDTVRip.avi
Формат : AVI
Формат/Информация : Audio Video Interleave
Размер файла : 1,37 Гбайт
Продолжительность : 1 ч. 30 м.
Общий поток : 2172 Кбит/сек
Программа кодирования : VirtualDubMod 1.5.10.3 | www.virtualdub-fr.org || (build 2550/release)
Библиотека кодирования : VirtualDubMod build 2550/release
Видео
Идентификатор : 0
Формат : MPEG-4 Visual
Профиль формата : Advanced Simple@L5
Параметр BVOP формата : 1
Параметр QPel формата : Нет
Параметр GMC формата : Без точки перехода
Параметр матрицы формата : Default (H.263)
Идентификатор кодека : XVID
Идентификатор кодека/Подсказка : XviD
Продолжительность : 1 ч. 30 м.
Битрейт : 1970 Кбит/сек
Ширина : 720 пикселей
Высота : 400 пикселей
Соотношение сторон : 16:9
Частота кадров : 25,000 кадров/сек
Цветовое пространство : YUV
Субдискретизация насыщенности : 4:2:0
Битовая глубина : 8 бит
Тип развёртки : Прогрессивная
Метод сжатия : С потерями
Бит/(Пиксели*Кадры) : 0.274
Размер потока : 1,24 Гбайт (91%)
Библиотека кодирования : XviD 1.2.1 (UTC 2008-12-04)
Аудио
Идентификатор : 1
Формат : AC-3
Формат/Информация : Audio Coding 3
Расширение режима : CM (complete main)
Параметр Endianness формата : Big
Идентификатор кодека : 2000
Продолжительность : 1 ч. 30 м.
Вид битрейта : Постоянный
Битрейт : 192 Кбит/сек
Каналы : 2 канала
Расположение каналов : Front: L R
Частота : 48,0 КГц
Битовая глубина : 16 бит
Метод сжатия : С потерями
Размер потока : 124 Мбайт (9%)
Выравнивание : Разделение по промежуткам
Продолжительность промежутка : 40 мс. (1,00 видеокадр)
Время предзагрузки промежутка : 500 мс.

Скриншоты







Создавать темы 28-Май-2013 11:45

[Профиль]  [ЛС] 

shahz

Стаж: 5 лет 7 месяцев

Сообщений: 192

Симпатии: 9

Премьера прям на тв была?

Создавать темы 28-Май-2013 13:53

[Профиль]  [ЛС] 

Sunnat1999 ®

Стаж: 4 года 7 месяцев

Сообщений: 756

Симпатии: 416

Премьера прям на тв была?
Не знаю. Данные с кинопоиска.

Создавать темы 28-Май-2013 14:38

[Профиль]  [ЛС] 

Марго

Стаж: 5 лет 11 месяцев

Сообщений: 10

26 мая по телеку показывали канал РТР.

Создавать темы 28-Май-2013 16:27

[Профиль]  [ЛС] 

lll

Стаж: 5 лет 4 месяца

Сообщений: 23

Симпатии: 11

очень хороший, добрый фильм!!! спасибо

Создавать темы 28-Май-2013 22:32

[Профиль]  [ЛС] 

Sunnat1999 ®

Стаж: 4 года 7 месяцев

Сообщений: 756

Симпатии: 416

Мне самому фильм понравился.
Я ожидал, что это просто пародия на американскую "Красотку", оказалось не совсем. Хотя, конечно общего много.

Создавать темы 28-Май-2013 22:55

[Профиль]  [ЛС] 

shahz

Стаж: 5 лет 7 месяцев

Сообщений: 192

Симпатии: 9

26 мая по телеку показывали канал РТР.
Не понимаю я таких фильмов, а прибыль тогда откуда? Снимаешь и сразу на ТВ.
- Может пару месяцев в кинотеатрах будем крутить?
- Нее, не надо, не слышал про такое...

Создавать темы 29-Май-2013 00:55

[Профиль]  [ЛС] 

lll

Стаж: 5 лет 4 месяца

Сообщений: 23

Симпатии: 11

так фильм Россия и купила..либо сам канал спонсирвал

Создавать темы 29-Май-2013 01:51

[Профиль]  [ЛС] 
Показать сообщения:    
Ответить на тему

Текущее время: 21-Окт 04:18

Часовой пояс: UTC + 5



Вы не можете начинать темы
Вы не можете отвечать на сообщения
Вы не можете редактировать свои сообщения
Вы не можете удалять свои сообщения
Вы не можете голосовать в опросах
Вы не можете прикреплять файлы к сообщениям
Вы не можете скачивать файлы