Миссия «Серенити» / Serenity (Джосс Уидон) [2005 г., Боевик, Приключения, Триллер, Фантастика, BDRip 1080p]

Страницы :  1, 2  След.

Ответить на тему
 

Nosferatu ®

Стаж: 4 года 7 месяцев

Сообщений: 79

Симпатии: 5

Миссия «Серенити» / Serenity- -
Год выпуска: 2005
Страна: США
Жанр: Боевик, Приключения, Триллер, Фантастика
Продолжительность: 01:59:01
Перевод: Профессиональный (полное дублирование)-Режиссер: Джосс Уидон-В ролях:
Адам Болдуин, Алан Тьюдик, Джина Торрес, Джуэл Стэйт, Морена Баккарин, Натан Филлион, Рон Гласс, Саммер Глау, Чиветел Эджиофор, Шон Маэр-Описание:
Космический «морской волк» и ветеран Гражданской Галактической войны Малькольм «Мэл» Рейнольдс — теперь всего лишь капитан транспортного корабля. Когда они взяли на борт пассажиров — молодого доктора и его странную сестру с телепатическими способностями, ни он, ни его товарищи не предполагали, в какую историю ввяжутся. Спасаясь сразу от нескольких могущественных врагов — и от военных сил тоталитарного Вселенского Альянса, и от ужасных каннибалов Жнецов, команда корабля даже не догадывалась, какая угроза скрывается на борту «Серенити»-Доп. информация: Бюджет: $39 000 000-Качество: BDRip 1080p
Формат: MKV
Видео кодек: AVC
Аудио кодек: AC3
Видео: MPEG4 Video (H264) 1920x816 23.976fps 11.3 Mbps-Аудио #1: AC-3, 384 Kbps, 6 channels, 48.0 KHz, rus, R5 лицензия
Аудио #2: AC-3, 384 Kbps, 6 channels, 48.0 KHz, rus, Tycoon
Аудио #3: AC-3, 640 Kbps, 6 channels, 48.0 KHz, eng, Dolby Digital 5.1 - 640kbit/s
Аудио #4: AC-3, 192 Kbps, 2 channels, 48.0 KHz, eng, Dolby Digital 2.0 - Directors Commentary - 192kbit/s
-Субтитры: , rus, eng (English), eng (English (Hearing Impaired)), dan (Danish), dut (Dutch; Flemish), fin (Finnish), gre (Greek), hun (Hungarian), pol (Polish), por (Portuguese)

Media Info

Format : Matroska
Format version : Version 1
File size : 9.38 GiB
Duration : 1h 59mn
Overall bit rate : 11.3 Mbps
Encoded date : UTC 2008-04-26 20:56:59
Writing application : mkvmerge v2.1.0 ('Another Place To Fall') built on Aug 19 2007 13:40:07
Writing library : libebml v0.7.7 + libmatroska v0.8.1
Attachment : Yes / Yes
Video
ID : 1
Format : AVC
Format/Info : Advanced Video Codec
Format profile : [email protected]
Format settings, CABAC : Yes
Format settings, ReFrames : 11 frames
Codec ID : V_MPEG4/ISO/AVC
Duration : 1h 59mn
Bit rate : 9 674 Kbps
Width : 1 920 pixels
Height : 816 pixels
Display aspect ratio : 2.35:1
Frame rate mode : Constant
Frame rate : 23.976 fps
Color space : YUV
Chroma subsampling : 4:2:0
Bit depth : 8 bits
Scan type : Progressive
Bits/(Pixel*Frame) : 0.258
Stream size : 7.86 GiB (84%)
Title : 1920x816 - x264 - 9.7mbit/s
Writing library : x264 core 56 svn-667C
Encoding settings : cabac=1 / ref=8 / deblock=1:-2:-1 / analyse=0x3:0x133 / me=umh / subme=7 / brdo=1 / mixed_ref=1 / me_range=16 / chroma_me=1 / trellis=2 / 8x8dct=1 / cqm=2 / deadzone=21,11 / chroma_qp_offset=0 / threads=3 / nr=0 / decimate=0 / mbaff=0 / bframes=3 / b_pyramid=1 / b_adapt=1 / b_bias=0 / direct=3 / wpredb=1 / bime=1 / keyint=250 / keyint_min=25 / scenecut=40(pre) / rc=2pass / bitrate=9674 / ratetol=1.0 / rceq='blurCplx^(1-qComp)' / qcomp=0.60 / qpmin=10 / qpmax=51 / qpstep=4 / cplxblur=20.0 / qblur=0.5 / ip_ratio=1.40 / pb_ratio=1.30 / zones=163100,171220,b=0.03 / aq=1:0.3:15.0
Language : English
Default : Yes
Forced : No
Audio #1
ID : 2
Format : AC-3
Format/Info : Audio Coding 3
Mode extension : CM (complete main)
Format settings, Endianness : Big
Codec ID : A_AC3
Duration : 1h 59mn
Bit rate mode : Constant
Bit rate : 384 Kbps
Channel(s) : 6 channels
Channel positions : Front: L C R, Side: L R, LFE
Sampling rate : 48.0 KHz
Bit depth : 16 bits
Compression mode : Lossy
Stream size : 327 MiB (3%)
Title : R5 лицензия
Language : Russian
Default : Yes
Forced : No
Audio #2
ID : 3
Format : AC-3
Format/Info : Audio Coding 3
Mode extension : CM (complete main)
Format settings, Endianness : Big
Codec ID : A_AC3
Duration : 1h 59mn
Bit rate mode : Constant
Bit rate : 384 Kbps
Channel(s) : 6 channels
Channel positions : Front: L C R, Side: L R, LFE
Sampling rate : 48.0 KHz
Bit depth : 16 bits
Compression mode : Lossy
Stream size : 327 MiB (3%)
Title : Tycoon
Language : Russian
Default : No
Forced : No
Audio #3
ID : 4
Format : AC-3
Format/Info : Audio Coding 3
Mode extension : CM (complete main)
Format settings, Endianness : Big
Codec ID : A_AC3
Duration : 1h 59mn
Bit rate mode : Constant
Bit rate : 640 Kbps
Channel(s) : 6 channels
Channel positions : Front: L C R, Side: L R, LFE
Sampling rate : 48.0 KHz
Bit depth : 16 bits
Compression mode : Lossy
Stream size : 545 MiB (6%)
Title : Dolby Digital 5.1 - 640kbit/s
Language : English
Default : No
Forced : No
Audio #4
ID : 5
Format : AC-3
Format/Info : Audio Coding 3
Format profile : Dolby Digital
Mode extension : CM (complete main)
Format settings, Endianness : Big
Codec ID : A_AC3
Duration : 1h 59mn
Bit rate mode : Constant
Bit rate : 192 Kbps
Channel(s) : 2 channels
Channel positions : Front: L R
Sampling rate : 48.0 KHz
Bit depth : 16 bits
Compression mode : Lossy
Stream size : 163 MiB (2%)
Title : Dolby Digital 2.0 - Director's Commentary - 192kbit/s
Language : English
Default : No
Forced : No
Text #1
ID : 6
Format : UTF-8
Codec ID : S_TEXT/UTF8
Codec ID/Info : UTF-8 Plain Text
Default : Yes
Forced : No
Text #2
ID : 7
Format : UTF-8
Codec ID : S_TEXT/UTF8
Codec ID/Info : UTF-8 Plain Text
Language : Russian
Default : No
Forced : No
Text #3
ID : 8
Format : ASS
Codec ID : S_TEXT/ASS
Codec ID/Info : Advanced Sub Station Alpha
Compression mode : Lossless
Title : English
Language : English
Default : No
Forced : No
Text #4
ID : 9
Format : ASS
Codec ID : S_TEXT/ASS
Codec ID/Info : Advanced Sub Station Alpha
Compression mode : Lossless
Title : English (Hearing Impaired)
Language : English
Default : No
Forced : No
Text #5
ID : 10
Format : ASS
Codec ID : S_TEXT/ASS
Codec ID/Info : Advanced Sub Station Alpha
Compression mode : Lossless
Title : Danish
Language : Danish
Default : No
Forced : No
Text #6
ID : 11
Format : ASS
Codec ID : S_TEXT/ASS
Codec ID/Info : Advanced Sub Station Alpha
Compression mode : Lossless
Title : Dutch; Flemish
Language : Dutch
Default : No
Forced : No
Text #7
ID : 12
Format : ASS
Codec ID : S_TEXT/ASS
Codec ID/Info : Advanced Sub Station Alpha
Compression mode : Lossless
Title : Finnish
Language : Finnish
Default : No
Forced : No
Text #8
ID : 13
Format : ASS
Codec ID : S_TEXT/ASS
Codec ID/Info : Advanced Sub Station Alpha
Compression mode : Lossless
Title : Greek
Language : Greek
Default : No
Forced : No
Text #9
ID : 14
Format : ASS
Codec ID : S_TEXT/ASS
Codec ID/Info : Advanced Sub Station Alpha
Compression mode : Lossless
Title : Hungarian
Language : Hungarian
Default : No
Forced : No
Text #10
ID : 15
Format : ASS
Codec ID : S_TEXT/ASS
Codec ID/Info : Advanced Sub Station Alpha
Compression mode : Lossless
Title : Polish
Language : Polish
Default : No
Forced : No
Text #11
ID : 16
Format : ASS
Codec ID : S_TEXT/ASS
Codec ID/Info : Advanced Sub Station Alpha
Compression mode : Lossless
Title : Portuguese
Language : Portuguese
Default : No
Forced : No

Скриншоты













Последний раз редактировалось: Nosferatu (2013-05-30 13:22), всего редактировалось 1 раз

Создавать темы 29-Май-2013 02:21

[Профиль]  [ЛС] 

DooM

Стаж: 6 лет

Сообщений: 809

Симпатии: 30

Nosferatu, Давно искал этот фильм, ну а размером в 1,37 нету?

Создавать темы 29-Май-2013 12:31

[Профиль]  [ЛС] 

Nosferatu ®

Стаж: 4 года 7 месяцев

Сообщений: 79

Симпатии: 5

Nosferatu, Давно искал этот фильм, ну а размером в 1,37 нету?
К сожалению у меня нет

Создавать темы 29-Май-2013 13:08

[Профиль]  [ЛС] 

DooM

Стаж: 6 лет

Сообщений: 809

Симпатии: 30

Nosferatu, Давно искал этот фильм, ну а размером в 1,37 нету?
К сожалению у меня нет
жаль.

Создавать темы 29-Май-2013 14:52

[Профиль]  [ЛС] 

david

Стаж: 7 лет 4 месяца

Сообщений: 467

Симпатии: 12

чет качество для BDRip не того, подожду лучше DVDRip

Создавать темы 31-Май-2013 13:46

[Профиль]  [ЛС] 

Топик был перенесен из форума Зарубежное кино в форум Зарубежное кино

ziyod

Создавать темы 02-Июн-2013 08:22

 

nuqta

Стаж: 5 лет 8 месяцев

Сообщений: 40

Симпатии: 2

Качество бесподобно

Создавать темы 03-Июн-2013 23:57

[Профиль]  [ЛС] 

Robot-IX

Стаж: 5 лет 6 месяцев

Сообщений: 223

Симпатии: 9

Качество бесподобно
ДА

Создавать темы 04-Июн-2013 01:50

[Профиль]  [ЛС] 

Sulaco

Стаж: 4 года 9 месяцев

Сообщений: 29

Дайте скорости! Сидеры!!!

Создавать темы 10-Окт-2013 21:47

[Профиль]  [ЛС] 

BUMER

Стаж: 4 года 8 месяцев

Сообщений: 22

ребята может на раздачу вернётесь а то уж устал ждать или удалите на....уй чтоб люди не мучались

Создавать темы 01-Янв-2014 18:25

[Профиль]  [ЛС] 

kralyan

Стаж: 5 лет 1 месяц

Сообщений: 72

Симпатии: 7

Хороший фильм. Давно смотрел, но можно ещё раз посмотреть.

Создавать темы 06-Май-2014 14:04

[Профиль]  [ЛС] 

BUMER

Стаж: 4 года 8 месяцев

Сообщений: 22

ребят ну неужели всех нужно матюкать что бы раздавали?????

Создавать темы 29-Июн-2014 19:01

[Профиль]  [ЛС] 

BUMER

Стаж: 4 года 8 месяцев

Сообщений: 22

заипали раздайте уже в конце всех концов

Создавать темы 07-Июл-2014 21:53

[Профиль]  [ЛС] 

BUMER

Стаж: 4 года 8 месяцев

Сообщений: 22

жиды скорости дайте

Создавать темы 12-Сен-2014 14:14

[Профиль]  [ЛС] 

BUMER

Стаж: 4 года 8 месяцев

Сообщений: 22

сидеры вы вопще что там делаете то раздайте уже

Создавать темы 19-Сен-2014 19:36

[Профиль]  [ЛС] 
Показать сообщения:    
Ответить на тему

Текущее время: 23-Окт 22:20

Часовой пояс: UTC + 5



Вы не можете начинать темы
Вы не можете отвечать на сообщения
Вы не можете редактировать свои сообщения
Вы не можете удалять свои сообщения
Вы не можете голосовать в опросах
Вы не можете прикреплять файлы к сообщениям
Вы не можете скачивать файлы