Стукач / Snitch (Рик Роман Во / Ric Roman Waugh) [2013, Триллер, драма, BDRip][Лицензия]

Страницы :  1, 2, 3, 4  След.

Ответить на тему
 

Suxrob89 ®

Стаж: 7 лет 3 месяца

Сообщений: 933

Симпатии: 564

-Стукач / Snitch-«Как далеко ты можешь зайти, чтобы спасти своего сына?»- Год выпуска: 2013
Выпущено: США, ОАЭ / Summit Entertainment
Жанр: триллер, драма
Продолжительность: 01:51:52
Перевод: Профессиональный (полное дублирование)[Лицензия]
Субтитры: нет-Режиссер:
Рик Роман Во / Ric Roman Waugh-В ролях:
Дуэйн Джонсон (John Matthews), Барри Пеппер (Agent Cooper), Джон Бернтал (Daniel James), Сьюзен Сарандон (Joanne Keeghan), Майкл К. Уильямс (Malik), Рафи Гаврон (Jason Collins), Мелина Канакаредес (Sylvie Collins), Надин Веласкес (Analisa), Бенджамин Брэтт (Juan Carlos «El Topo» Pintera), Лела Лорен (Vanessa)-Описание:
Ради спасения сына, которому грозит срок за продажу наркотиков, отец идет на сделку с полицией. Он должен внедриться в самое сердце наркомафии.- -Качество: BDRip
Формат: AVI
Видео: 720x304 (2.37:1), 23.976 fps, XviD 65 ~1462 kbps avg, 0.279 bit/pixel
Аудио: 48 kHz, AC3 Dolby Digital, 3/2 (L,C,R,l,r) + LFE ch, 384.00 kbps-

Скриншот c названием фильма

Скриншоты

MediaInfo

D:\Stukach.2013.D.BDRip.1.45GB.avi
General
Complete name : D:\Stukach.2013.D.BDRip.1.45GB.avi
Format : AVI
Format/Info : Audio Video Interleave
File size : 1.45 GiB
Duration : 1h 51mn
Overall bit rate : 1 855 Kbps
Writing application : VirtualDubModRus 1.5.10.2 (build 2542/release)
Writing library : VirtualDubMod build 2542/release
Video #0
ID : 0
Format : MPEG-4 Visual
Format profile : Advanced [email protected]
Format settings, BVOP : 1
Format settings, QPel : No
Format settings, GMC : No warppoints
Format settings, Matrix : Custom
Codec ID : XVID
Codec ID/Hint : XviD
Duration : 1h 51mn
Bit rate : 1 462 Kbps
Width : 720 pixels
Height : 304 pixels
Display aspect ratio : 2.35:1
Frame rate : 23.976 fps
Color space : YUV
Chroma subsampling : 4:2:0
Bit depth : 8 bits
Scan type : Progressive
Compression mode : Lossy
Bits/(Pixel*Frame) : 0.279
Stream size : 1.14 GiB (79%)
Writing library : XviD 65
Audio #1
ID : 1
Format : AC-3
Format/Info : Audio Coding 3
Mode extension : CM (complete main)
Format settings, Endianness : Big
Codec ID : 2000
Duration : 1h 51mn
Bit rate mode : Constant
Bit rate : 384 Kbps
Channel(s) : 6 channels
Channel positions : Front: L C R, Side: L R, LFE
Sampling rate : 48.0 KHz
Bit depth : 16 bits
Compression mode : Lossy
Stream size : 307 MiB (21%)
Alignment : Split accross interleaves
Interleave, duration : 42 ms (1.00 video frame)
Interleave, preload duration : 500 ms


Последний раз редактировалось: Suxrob89 (2013-06-14 13:27), всего редактировалось 2 раз(а)

Создавать темы 29-Май-2013 12:43

[Профиль]  [ЛС] 

artur78-h

Стаж: 5 лет 7 месяцев

Сообщений: 114

Cпасибо за лицу

Создавать темы 29-Май-2013 13:19

[Профиль]  [ЛС] 

highlord!

Стаж: 6 лет 9 месяцев

Сообщений: 62

Симпатии: 1

Реально что не зделаешь ради детей.

Создавать темы 29-Май-2013 13:37

[Профиль]  [ЛС] 

sanjar_0009

Стаж: 5 лет 4 месяца

Сообщений: 50

Симпатии: 2

Cпасибо

Создавать темы 29-Май-2013 13:58

[Профиль]  [ЛС] 

titton

Стаж: 7 лет 4 месяца

Сообщений: 69

Симпатии: 2

спасибо,плиз дайте скорости

Создавать темы 29-Май-2013 18:44

[Профиль]  [ЛС] 

StivenGerrard

Стаж: 6 лет 10 месяцев

Сообщений: 17

вот ОАЭ и начал выпускать фильмы, по моему это первый нефтяной фильм

Создавать темы 29-Май-2013 19:00

[Профиль]  [ЛС] 

PaXa

Стаж: 5 лет 10 месяцев

Сообщений: 40

Симпатии: 2

обожаю автора))) спасибо за релиз))

Создавать темы 29-Май-2013 19:00

[Профиль]  [ЛС] 

ASUS F5

Стаж: 5 лет 6 месяцев

Сообщений: 58

Симпатии: 3

спасио большое

Создавать темы 29-Май-2013 19:23

[Профиль]  [ЛС] 

ASUS F5

Стаж: 5 лет 6 месяцев

Сообщений: 58

Симпатии: 3

зачем не проверено ?

Создавать темы 29-Май-2013 19:24

[Профиль]  [ЛС] 

igor1968

Стаж: 5 лет 8 месяцев

Сообщений: 366

Симпатии: 197

релиз на DVD
4 июня 2013, «Парадиз / Активижен», ...
релиз на Blu-Ray
18 июня 2013, «Парадиз / Активижен», ...
 

Создавать темы 29-Май-2013 21:04

[Профиль]  [ЛС] 

laziz1888

Стаж: 5 лет 1 месяц

Сообщений: 31

Симпатии: 3

пока качаем

Создавать темы 29-Май-2013 22:23

[Профиль]  [ЛС] 

diyor-101

Стаж: 5 лет 10 месяцев

Сообщений: 112

Симпатии: 14

люди у кого тариф Record 0 и какая скорость

Создавать темы 29-Май-2013 23:01

[Профиль]  [ЛС] 

azam

Стаж: 7 лет 5 месяцев

Сообщений: 97

Симпатии: 7

Отличный фильм! Спасибо!

Создавать темы 30-Май-2013 14:19

[Профиль]  [ЛС] 

Timurchik

Стаж: 5 лет 10 месяцев

Сообщений: 13

84 сида и такая скорость дайте скорости пожалуйста заранее спасибо!!!

Создавать темы 30-Май-2013 14:23

[Профиль]  [ЛС] 

anton545

Стаж: 5 лет

Сообщений: 3

Спасибо!!!

Создавать темы 31-Май-2013 17:43

[Профиль]  [ЛС] 
Показать сообщения:    
Ответить на тему

Текущее время: 22-Ноя 20:02

Часовой пояс: UTC + 5



Вы не можете начинать темы
Вы не можете отвечать на сообщения
Вы не можете редактировать свои сообщения
Вы не можете удалять свои сообщения
Вы не можете голосовать в опросах
Вы не можете прикреплять файлы к сообщениям
Вы не можете скачивать файлы