[#069] Лоуренс Аравийский / Lawrence of Arabia (Дэвид Лин / David Lean) [1962, драма, приключения, военный, биография, история, HDTVRip]

Ответить на тему
 

schweppes ®

Стаж: 4 года 8 месяцев

Сообщений: 72

-Лоуренс Аравийский / Lawrence of Arabia-«After five years... the first motion picture from the creators of The Bridge On The River Kwai. Columbia Pictures presents The Sam Spiegel . David Lean Production of .....»- IMDb: Top 250: #69 (29.05.2013)
Страна: Великобритания, США
Кинокомпания: Columbia Pictures
Жанр: драма, приключения, военный, биография, история
Год выпуска: 1962
Продолжительность: 03:47:00
Перевод: Профессиональный (Многоголосый, закадровый) [Супербит]
Оригинальная аудиодорожка: Отсутствует-Режиссер: Дэвид Лин
Сценарий: Роберт Болт, Майкл Уилсон, Т. Э. Лоуренс
Продюсер: Роберт А. Харрис, Сэм Шпигель
Оператор: Фредди Янг
Композитор: Морис Жарр, Фред Гилберт-В ролях: Питер О’Тул, Алек Гиннесс, Энтони Куинн, Джек Хоукинс, Омар Шариф, Хосе Феррер, Энтони Куэйл, Клод Рейнс, Артур Кеннеди, Дональд Вулфит-Описание: Один из самых значительных фильмов-эпопей в истории мирового кинематографа, содержащий в себе все лучшее, что может предложить кино.
История о жизни эксцентричного британского офицера Т. Э. Лоуренса, который предпринял кампанию против турок в Первую мировую войну. Полковник Лоуренс добивается объединения арабских племен против турок, но, осознав, что на смену чести пришла жажда крови, а смелость заменило высокомерие, он падает духом. И мы наблюдаем его душевный кризис. С невероятным правдоподобием сняты безрассудность колониального режима и лицемерие войны.
- -Качество видео: HDTVRip
Формат видео: AVI
Видео: 672x304 (2.2:1), 25.000 fps, XviD build 65, 878 kbps avg, 0.172 bit/pixel
Аудио: 48 kHz, MP3, 2 channels, 128 kbps-

Награды и номинации

Знаете ли вы, что...

  • Кинолента явилась дебютом Питер О`Тула, а также первым фильмом Омара Шарифа, снятым не в Египте, (звездой киноэкрана которого он был), она послужила грандиозным толчком для карьеры обоих.
  • В фильме нет ни одной женщины, если не считать девушки в чадре, появляющейся в течении нескольких секунд в окружении принца Фейсала.
  • Роль шерифа Али прежде Омара Шарифа предлагали отдать Алену Делону, но тот отказался носить коричневые контактные линзы, которые скрыли бы его голубые глаза.
  • Режиссёрская версия фильма имеет хронометраж 228 минут.

Скриншоты

- - -

MI

D:\Lawrence.of.Arabia.1962.HDTVRip_[1.46]_[teko].avi
General
Complete name : D:\Lawrence.of.Arabia.1962.HDTVRip_[1.46]_[teko].avi
Format : AVI
Format/Info : Audio Video Interleave
File size : 1.47 GiB
Duration : 3h 27mn
Overall bit rate : 1 016 Kbps
Writing application : VirtualDubMod 1.5.10.2 (build 2540/release)
Writing library : VirtualDubMod build 2540/release
Video #0
ID : 0
Format : MPEG-4 Visual
Format profile : Advanced [email protected]
Format settings, BVOP : 1
Format settings, QPel : No
Format settings, GMC : No warppoints
Format settings, Matrix : Default (MPEG)
Codec ID : XVID
Codec ID/Hint : XviD
Duration : 3h 27mn
Bit rate : 878 Kbps
Width : 672 pixels
Height : 304 pixels
Display aspect ratio : 2.2:1
Frame rate : 25.000 fps
Color space : YUV
Chroma subsampling : 4:2:0
Bit depth : 8 bits
Scan type : Progressive
Compression mode : Lossy
Bits/(Pixel*Frame) : 0.172
Stream size : 1.27 GiB (86%)
Writing library : XviD 1.2.0.dev47 (UTC 2006-11-01)
Audio #1
ID : 1
Format : MPEG Audio
Format version : Version 1
Format profile : Layer 3
Codec ID : 55
Codec ID/Hint : MP3
Duration : 3h 27mn
Bit rate mode : Constant
Bit rate : 128 Kbps
Channel(s) : 2 channels
Sampling rate : 48.0 KHz
Compression mode : Lossy
Stream size : 190 MiB (13%)
Alignment : Aligned on interleaves
Interleave, duration : 40 ms (1.00 video frame)
Interleave, preload duration : 504 ms
Writing library : LAME3.97
Encoding settings : -m s -V 4 -q 2 -lowpass 17 -b 128

Создавать темы 29-Май-2013 20:40

[Профиль]  [ЛС] 

vikkifree555

Стаж: 5 лет

Сообщений: 39

а премодерация то запаздывает(((((((

Создавать темы 30-Май-2013 13:27

[Профиль]  [ЛС] 

schweppes ®

Стаж: 4 года 8 месяцев

Сообщений: 72

Лоуренс Аравийский - Трейлер

Создавать темы 02-Июн-2013 22:41

[Профиль]  [ЛС] 

Ronin

Стаж: 5 лет 7 месяцев

Сообщений: 11

Спасибо огромное!!!

Создавать темы 02-Июн-2013 22:43

[Профиль]  [ЛС] 

Сварог

Стаж: 5 лет

Сообщений: 77

Симпатии: 4

Фильм бомба! Советую всем посмотреть. Я его по телевизору видел.

Создавать темы 03-Июн-2013 13:06

[Профиль]  [ЛС] 

MNjon

Стаж: 5 лет

Сообщений: 101

Симпатии: 5

на каком языке? оригинальная звуковая дорожка есть?

Создавать темы 05-Июн-2013 19:35

[Профиль]  [ЛС] 

Эрнест

Стаж: 5 лет 10 месяцев

Сообщений: 29

Я его по телевизору смотреть не хотел! А вот скачал просмотрел.Фильм шикарен!Всем рекоммендую к просмотру!

Создавать темы 05-Июн-2013 21:53

[Профиль]  [ЛС] 

Marty

Стаж: 4 года 2 месяца

Сообщений: 4

Скорости народ,осталось одна пятая процента!

Создавать темы 10-Авг-2013 14:30

[Профиль]  [ЛС] 

Marty

Стаж: 4 года 2 месяца

Сообщений: 4

Скорости,осталось 0.2%

Создавать темы 11-Авг-2013 22:47

[Профиль]  [ЛС] 
Показать сообщения:    
Ответить на тему

Текущее время: 26-Сен 07:01

Часовой пояс: UTC + 5



Вы не можете начинать темы
Вы не можете отвечать на сообщения
Вы не можете редактировать свои сообщения
Вы не можете удалять свои сообщения
Вы не можете голосовать в опросах
Вы не можете прикреплять файлы к сообщениям
Вы не можете скачивать файлы