[УЦ Advanced Training] Microsoft 6420 – Основы Windows Server 2008 R2 SP1 [2012, RUS]

Ответить на тему
 

gelion ®

Стаж: 4 года 5 месяцев

Сообщений: 81

Симпатии: 10

[УЦ Advanced Training] Microsoft 6420 – Основы Windows Server 2008 R2 SP1 [2012]
Год выпуска: 2012
Производитель: [УЦ Advanced Training]
Сайт производителя: http://www.atraining.ru
Автор: [Ruslan Karmanov]
Продолжительность: 33:14:01
Тип раздаваемого материала: Видеоурок
Язык: Русский
Описание: Microsoft 6420
Этот курс предназначен для начинающих IT-специалистов или сотрудников служб технической поддержки. Пройдя обучение на этом курсе, Вы приобретете базовые знания по сетям Windows для дальнейшего повышения квалификации. Этот курс также будет полезен для специалистов, планирующих переходить с конкурирующих платформ на Windows Server 2008 R2.

Содержание

Состав курса
Модуль №1 – Понимание сетевой инфраструктуры
•Стандарты сетевой архитектуры
•Локальные сети (LAN)
•Глобальные сети (WAN)
•Беспроводные сети
•Подключение к Интернет
•Удаленный доступ
Лабораторная работа:
•Выбор компонентов сетевой архитектуры
Модуль №2 – Соединение компонентов сети
•Модель OSI
•Сетевые адаптеры, концентраторы, коммутаторы
•Маршрутизация
•Типы сред передачи данных
Лабораторная работа:
•Соединение компонентов сети
Модуль №3 – Реализация TCP/IP
•Обзор TCP/IP
•Адресация IPv4
•Настройка IPv4
•Понимание IPv6
•Разрешение имен
Лабораторная работа:
•Релизация TCP/IP
Модуль №4 – Системы хранения данных в Windows Server
•Технологии систем хранения данных
•Управление дисками и разделами
•Реализация RAID массивов
Лабораторная работа:
•Системы хранения данных
Модуль №5 – Установка и конфигурирование Windows Server
•Установка Windows Server
•Управление службами Windows
•Управление устройствами
Лабораторная работа:
•Установка Windows Server
Модуль №6 – Роли Windows Server
•Ролевая система развертывания
•Развертывание серверов с определенными ролями
Лабораторная работа:
•Реализация ролей Windows Server
Модуль №7 – Служба каталогов Active Directory
•Обзор службы каталогов
•Развертывание службы каталогов
•Управление пользователями, группами и компьютерами
•Использование подразделений (Organizational Units)
•Использование групповых политик
Лабораторная работа:
•Развертывание служб Active Directory
Модуль №8 – Реализация информационной безопасности
•Обзор эшелонированной обороны (Defense-in-Depth)
•Физическая безопасность
•Безопасность в Интернет
Лабораторная работа:
•Реализация информационной безопасности
Модуль №9 – Безопасность сервера Windows Server
•Обзор безопасности Windows
•Защита файлов и папок
•Средства шифрования
Лабораторная работа:
•Реализация безопасности в Windows Server
Модуль №10 – Сетевая безопасность
•Обзор сетевой безопасности
•Настройка брандмауэра
•Защита доступа к сети (Network Access Protection)
Лабораторная работа:
•Настройка сетевой безопасности
Модуль №11 – Защита приложений
•Средства защиты клиента
•Защита электронной почты
•Защита сервера
Лабораторная работа:
•Защита приложений
Модуль №12 – Мониторинг производительности сервера
•Обзор серверных компонентов
•Мониторинг производительности
Лабораторная работа:
•Мониторинг производительности сервера
Модуль №13 – Обслуживание Windows Server
•Устранение неполадок загрузки Windows Server
•Доступность сервера и восстановление данных
•Обновления Windows Server
•Устранение неполадок Windows Server
Лабораторная работа:
•Обслуживание Windows Server
Модуль №14 – Виртуализация
•Обзор технологий виртуализации
•Роль Hyper-V

отчет MediaInfo

Формат : Windows Media
Размер файла : 156 Мбайт
Продолжительность : 8 ч. 0 м.
Режим общего битрейта : Переменный
Общий поток : 45,5 Кбит/сек
Максимальный общий битрейт : 177 Кбит/сек
Название фильма : 6420
Дата кодирования : UTC 2012-02-07 05:24:49.876
Примечание : Время начала: 12:04:38 ?06.?02.?2012; Продолжительность: 8:00:00; Участники: Александр Баф, Роман Боев, Стариков Антон Геннадьевич
Видео
Идентификатор : 1
Формат : VC-1
Профиль формата : [email protected]
Идентификатор кодека : WVC1
Идентификатор кодека/Подсказка : Microsoft
Описание кодека : Windows Media Video 9 Advanced Profile
Продолжительность : 8 ч. 0 м.
Вид битрейта : Переменный
Битрейт : 27,9 Кбит/сек
Ширина : 1024 пикселя
Высота : 576 пикселей
Соотношение сторон : 16:9
Частота кадров : 5,000 кадров/сек
Субдискретизация насыщенности : 4:2:0
Битовая глубина : 8 бит
Тип развёртки : Прогрессивная
Метод сжатия : С потерями
Бит/(Пиксели*Кадры) : 0.009
Размер потока : 95,8 Мбайт (61%)
Язык : English (US)
Аудио
Идентификатор : 2
Формат : WMA
Версия формата : Version 2
Идентификатор кодека : 161
Идентификатор кодека/Информация : Windows Media Audio
Описание кодека : Windows Media Audio 9.2 - 16 kbps, 16 kHz, mono 1-pass CBR
Продолжительность : 8 ч. 0 м.
Вид битрейта : Постоянный
Битрейт : 16,0 Кбит/сек
Каналы : 1 канал
Частота : 16,0 КГц
Битовая глубина : 16 бит
Размер потока : 54,9 Мбайт (35%)
Язык : Russian
Формат : Windows Media
Размер файла : 288 Мбайт
Продолжительность : 6 ч. 55 м.
Режим общего битрейта : Переменный
Общий поток : 96,7 Кбит/сек
Максимальный общий битрейт : 632 Кбит/сек
Название фильма : 6420 – Основы Windows Server 2008 R2 SP1
Дата кодирования : UTC 2012-02-07 16:52:43.707
Примечание : Время начала: 14:11:09 ?07.?02.?2012; Продолжительность: 6:55:32; Участники: Михаил Помаскин, Александр Баф, Роман Боев
Видео
Идентификатор : 1
Формат : VC-1
Профиль формата : [email protected]
Идентификатор кодека : WVC1
Идентификатор кодека/Подсказка : Microsoft
Описание кодека : Windows Media Video 9 Advanced Profile
Продолжительность : 6 ч. 55 м.
Вид битрейта : Переменный
Битрейт : 78,9 Кбит/сек
Ширина : 1920 пикселей
Высота : 1440 пикселей
Соотношение сторон : 4:3
Частота кадров : 5,000 кадров/сек
Субдискретизация насыщенности : 4:2:0
Битовая глубина : 8 бит
Тип развёртки : Прогрессивная
Метод сжатия : С потерями
Бит/(Пиксели*Кадры) : 0.006
Размер потока : 235 Мбайт (82%)
Язык : English (US)
Аудио
Идентификатор : 2
Формат : WMA
Версия формата : Version 2
Идентификатор кодека : 161
Идентификатор кодека/Информация : Windows Media Audio
Описание кодека : Windows Media Audio 9.2 - 16 kbps, 16 kHz, mono 1-pass CBR
Продолжительность : 6 ч. 55 м.
Вид битрейта : Постоянный
Битрейт : 16,0 Кбит/сек
Каналы : 1 канал
Частота : 16,0 КГц
Битовая глубина : 16 бит
Размер потока : 47,6 Мбайт (17%)
Язык : Russian
Формат : Windows Media
Размер файла : 274 Мбайт
Продолжительность : 6 ч. 16 м.
Режим общего битрейта : Переменный
Общий поток : 102 Кбит/сек
Максимальный общий битрейт : 471 Кбит/сек
Название фильма : 6420-3
Дата кодирования : UTC 2012-02-09 14:45:46.274
Примечание : Время начала: 15:25:18 ?08.?02.?2012; Продолжительность: 6:16:17; Участники: Хороший человек, Александр Баф, Pavel Selin
Видео
Идентификатор : 1
Формат : VC-1
Профиль формата : [email protected]
Идентификатор кодека : WVC1
Идентификатор кодека/Подсказка : Microsoft
Описание кодека : Windows Media Video 9 Advanced Profile
Продолжительность : 6 ч. 16 м.
Вид битрейта : Переменный
Битрейт : 83,9 Кбит/сек
Ширина : 1920 пикселей
Высота : 1440 пикселей
Соотношение сторон : 4:3
Частота кадров : 5,000 кадров/сек
Субдискретизация насыщенности : 4:2:0
Битовая глубина : 8 бит
Тип развёртки : Прогрессивная
Метод сжатия : С потерями
Бит/(Пиксели*Кадры) : 0.006
Размер потока : 226 Мбайт (82%)
Язык : English (US)
Аудио
Идентификатор : 2
Формат : WMA
Версия формата : Version 2
Идентификатор кодека : 161
Идентификатор кодека/Информация : Windows Media Audio
Описание кодека : Windows Media Audio 9.2 - 16 kbps, 16 kHz, mono 1-pass CBR
Продолжительность : 6 ч. 16 м.
Вид битрейта : Постоянный
Битрейт : 16,0 Кбит/сек
Каналы : 1 канал
Частота : 16,0 КГц
Битовая глубина : 16 бит
Размер потока : 43,1 Мбайт (16%)
Язык : Russian
Формат : Windows Media
Размер файла : 219 Мбайт
Продолжительность : 4 ч. 59 м.
Режим общего битрейта : Переменный
Общий поток : 102 Кбит/сек
Максимальный общий битрейт : 691 Кбит/сек
Название фильма : 6420
Дата кодирования : UTC 2012-02-09 22:51:07.542
Примечание : Время начала: 14:14:41 ?09.?02.?2012; Продолжительность: 4:59:53; Участники: Михаил Помаскин, Дмитрий Брюховский, Александр Баф
Видео
Идентификатор : 1
Формат : VC-1
Профиль формата : [email protected]
Идентификатор кодека : WVC1
Идентификатор кодека/Подсказка : Microsoft
Описание кодека : Windows Media Video 9 Advanced Profile
Продолжительность : 4 ч. 59 м.
Вид битрейта : Переменный
Битрейт : 84,1 Кбит/сек
Ширина : 1920 пикселей
Высота : 1440 пикселей
Соотношение сторон : 4:3
Частота кадров : 5,000 кадров/сек
Субдискретизация насыщенности : 4:2:0
Битовая глубина : 8 бит
Тип развёртки : Прогрессивная
Метод сжатия : С потерями
Бит/(Пиксели*Кадры) : 0.006
Размер потока : 180 Мбайт (82%)
Язык : English (US)
Аудио
Идентификатор : 2
Формат : WMA
Версия формата : Version 2
Идентификатор кодека : 161
Идентификатор кодека/Информация : Windows Media Audio
Описание кодека : Windows Media Audio 9.2 - 16 kbps, 16 kHz, mono 1-pass CBR
Продолжительность : 4 ч. 59 м.
Вид битрейта : Постоянный
Битрейт : 16,0 Кбит/сек
Каналы : 1 канал
Частота : 16,0 КГц
Битовая глубина : 16 бит
Размер потока : 34,3 Мбайт (16%)
Язык : Russian
Формат : Windows Media
Размер файла : 34,0 Мбайт
Продолжительность : 53 м.
Режим общего битрейта : Переменный
Общий поток : 88,6 Кбит/сек
Максимальный общий битрейт : 366 Кбит/сек
Название фильма : 6420
Дата кодирования : UTC 2012-02-10 04:13:27.627
Примечание : Время начала: 20:07:26 ?09.?02.?2012; Продолжительность: 0:53:38; Участники: Михаил Помаскин, Дмитрий Коваль, Роман Боев
Видео
Идентификатор : 1
Формат : VC-1
Профиль формата : [email protected]
Идентификатор кодека : WVC1
Идентификатор кодека/Подсказка : Microsoft
Описание кодека : Windows Media Video 9 Advanced Profile
Продолжительность : 53 м.
Вид битрейта : Переменный
Битрейт : 70,9 Кбит/сек
Ширина : 1920 пикселей
Высота : 1440 пикселей
Соотношение сторон : 4:3
Частота кадров : 5,000 кадров/сек
Субдискретизация насыщенности : 4:2:0
Битовая глубина : 8 бит
Тип развёртки : Прогрессивная
Метод сжатия : С потерями
Бит/(Пиксели*Кадры) : 0.005
Размер потока : 27,2 Мбайт (80%)
Язык : English (US)
Аудио
Идентификатор : 2
Формат : WMA
Версия формата : Version 2
Идентификатор кодека : 161
Идентификатор кодека/Информация : Windows Media Audio
Описание кодека : Windows Media Audio 9.2 - 16 kbps, 16 kHz, mono 1-pass CBR
Продолжительность : 53 м.
Вид битрейта : Постоянный
Битрейт : 16,0 Кбит/сек
Каналы : 1 канал
Частота : 16,0 КГц
Битовая глубина : 16 бит
Размер потока : 6,14 Мбайт (18%)
Язык : Russian
Формат : Windows Media
Размер файла : 271 Мбайт
Продолжительность : 6 ч. 8 м.
Режим общего битрейта : Переменный
Общий поток : 103 Кбит/сек
Максимальный общий битрейт : 552 Кбит/сек
Название фильма : 6420-5
Дата кодирования : UTC 2012-02-10 21:28:55.549
Примечание : Время начала: 14:06:27 ?10.?02.?2012; Продолжительность: 6:08:23; Участники: Михаил Помаскин, Владимир Амоль, Александр Баф
Видео
Идентификатор : 1
Формат : VC-1
Профиль формата : [email protected]
Идентификатор кодека : WVC1
Идентификатор кодека/Подсказка : Microsoft
Описание кодека : Windows Media Video 9 Advanced Profile
Продолжительность : 6 ч. 8 м.
Вид битрейта : Переменный
Битрейт : 84,8 Кбит/сек
Ширина : 1920 пикселей
Высота : 1440 пикселей
Соотношение сторон : 4:3
Частота кадров : 5,000 кадров/сек
Субдискретизация насыщенности : 4:2:0
Битовая глубина : 8 бит
Тип развёртки : Прогрессивная
Метод сжатия : С потерями
Бит/(Пиксели*Кадры) : 0.006
Размер потока : 224 Мбайт (83%)
Язык : English (US)
Аудио
Идентификатор : 2
Формат : WMA
Версия формата : Version 2
Идентификатор кодека : 161
Идентификатор кодека/Информация : Windows Media Audio
Описание кодека : Windows Media Audio 9.2 - 16 kbps, 16 kHz, mono 1-pass CBR
Продолжительность : 6 ч. 8 м.
Вид битрейта : Постоянный
Битрейт : 16,0 Кбит/сек
Каналы : 1 канал
Частота : 16,0 КГц
Битовая глубина : 16 бит
Размер потока : 42,2 Мбайт (16%)
Язык : Russian
Файлы примеров: отсутствуют
Формат видео: WMV
Видео: VC-1 1920х1440-1024х576
Аудио: WMA 16 kbps, 16 kHz

Скриншоты








Доп. информация:Большое Спасибо за Ссылку FTP Vital_k http://rutracker.org/forum/viewtopic.php?t=4119931

Создавать темы 30-Май-2013 05:57

[Профиль]  [ЛС] 

Sancti

Стаж: 5 лет 8 месяцев

Сообщений: 11

Симпатии: 1

ужасно раздражает его насморк в сочетании с пробелами аудиозаписи, плюс ко всему видео идет без остановки... Зачем оставлять в видео пол часа перерыва на обед и пятиминутные высмаркивания.

Создавать темы 09-Июл-2014 02:20

[Профиль]  [ЛС] 
Показать сообщения:    
Ответить на тему

Текущее время: 21-Ноя 03:59

Часовой пояс: UTC + 5



Вы не можете начинать темы
Вы не можете отвечать на сообщения
Вы не можете редактировать свои сообщения
Вы не можете удалять свои сообщения
Вы не можете голосовать в опросах
Вы не можете прикреплять файлы к сообщениям
Вы не можете скачивать файлы