Наруто ураганные хроники 2 сезон 315 серия / Naruto Shippuuden 315 (Дате Хаяте) [2013 г., Приключения, комедия, боевые искусства, HDTVRip-AVC]

Ответить на тему
 

Актам Денмухаммадиев ®

Стаж: 4 года 5 месяцев

Сообщений: 113

Наруто ураганные хроники 2 сезон 315 серия / Naruto Shippuuden 315
Год выпуска: 2013
Страна: Япония
Жанр: Приключения, комедия, боевые искусства
Продолжительность: 23mn 9s
Перевод: Любительский (одноголосый)
Режиссер: Дате Хаяте
В ролях: Накамура Тиэ / 中村千絵 — Сакура Харуно
Такэучи Дзюнко / 竹内順子 — Наруто Узумаки
Сугияма Нориаки / 杉山紀彰 — Саске Учиха
Исида Акира / 石田彰 — Гаара
Иноуэ Кадзухико / 井上和彦 — Какаши Хатаке
Кудзира / くじら — Орочимару
Канна Нобутоси / 神奈延年 — Кабуто Якуси
Кацуки Масако / 勝生真沙子 — Цунадэ
Масукава Ёити / 増川洋一 — Рок Ли
Мидзуки Нана / 水樹奈々 — Хината Хьюга
Морикубо Сётаро / 森久保祥太郎 — Шикамару Нара
Оцука Хотю / 大塚芳忠 — Джирайя
Сибата Хидэкацу / 柴田秀勝 — Третий Хокаге
Исикава Хидэо / 石川英郎 — Итачи Учиха
Тотика Койти / 遠近孝一 — Нейджи Хьюга
Качество: HDTVRip-AVC
Формат: AVI
Видео кодек: Другой MPEG4
Аудио кодек: MPEG Audio
Видео: ID : 1 Format : AVC Format/Info : Advanced Video Codec Format profile : [email protected] Format settings, CABAC : Yes Format settings, ReFrames : 6 frames Codec ID : V_MPEG4/ISO/AVC Duration : 23mn 9s Bit rate : 768 Kbps Width : 848 pixels Height : 480 pixels Display aspect ratio : 16:9 Frame rate : 23.810 fps Original frame rate : 23.976 fps Color space : YUV Chroma subsampling : 4:2:0 Bit depth : 8 bits Scan type : Progressive Bits/(Pixel*Frame) : 0.079 Stream size : 124 MiB (69%) Writing library : x264 core 120 r2120
Аудио: ID : 2 Format : MPEG Audio Format version : Version 1 Format profile : Layer 3 Codec ID : A_MPEG/L3 Codec ID/Hint : MP3 Duration : 23mn 9s Bit rate mode : Constant Bit rate : 320 Kbps Channel(s) : 2 channels Sampling rate : 44.1 KHz Compression mode : Lossy Stream size : 53.0 MiB (29%) Default : Yes Forced : No br НЕ ЗАБЫВАЕМ НАЖИМАТЬ КНОПОЧКУ "СПАСИБО" br

Скриншоты





Последний раз редактировалось: Актам Денмухаммадиев (2013-06-02 09:43), всего редактировалось 2 раз(а)

Создавать темы 31-Май-2013 01:05

[Профиль]  [ЛС] 

Актам Денмухаммадиев ®

Стаж: 4 года 5 месяцев

Сообщений: 113

МОДЕРАТОРЫ!, замодерируйте побыстрее пожалуйста! cb

Создавать темы 31-Май-2013 01:11

[Профиль]  [ЛС] 

fagando88

Стаж: 4 года 11 месяцев

Сообщений: 8

[bда!побыстрей пожалуйста

Создавать темы 31-Май-2013 06:58

[Профиль]  [ЛС] 

shaxrom1998

Стаж: 4 года 5 месяцев

Сообщений: 45

филлер bu bu bu

Создавать темы 31-Май-2013 08:51

[Профиль]  [ЛС] 

nusrat76

Стаж: 4 года 10 месяцев

Сообщений: 3

что так долго???

Создавать темы 31-Май-2013 12:38

[Профиль]  [ЛС] 

XAKER_97

Стаж: 5 лет 2 месяца

Сообщений: 27

Раздача когда будет?

Создавать темы 31-Май-2013 16:37

[Профиль]  [ЛС] 

Актам Денмухаммадиев ®

Стаж: 4 года 5 месяцев

Сообщений: 113

Качайте!!! br

Создавать темы 01-Июн-2013 06:31

[Профиль]  [ЛС] 

shaxrom1998

Стаж: 4 года 5 месяцев

Сообщений: 45

alice1395, у тебя стаж почти 10 месяцев и ты не знаешь что такое ∏премодерация?

Создавать темы 01-Июн-2013 10:08

[Профиль]  [ЛС] 

fagando88

Стаж: 4 года 11 месяцев

Сообщений: 8

неужеле! mg mg mg а теперь скорости!скорости!скорости!

Создавать темы 01-Июн-2013 14:06

[Профиль]  [ЛС] 
Показать сообщения:    
Ответить на тему

Текущее время: 22-Авг 23:50

Часовой пояс: UTC + 5



Вы не можете начинать темы
Вы не можете отвечать на сообщения
Вы не можете редактировать свои сообщения
Вы не можете удалять свои сообщения
Вы не можете голосовать в опросах
Вы не можете прикреплять файлы к сообщениям
Вы не можете скачивать файлы