Последняя фантазия: Духи внутри нас / Final Fantasy: The Spirits Within (Хиронобу Сакагути, Мото Сакакибара) [2001 г., мультфильм, фантастика, боевик, триллер, BDRip]

Ответить на тему
 

tatarinmix ®

Стаж: 4 года 6 месяцев

Сообщений: 35

Симпатии: 6

Последняя фантазия: Духи внутри нас
Final Fantasy: The Spirits Within


Год выпуска: 2001
Страна: США, Япония
Жанр: мультфильм, фантастика, боевик, триллер
Продолжительность: 01.45.58
Перевод: Профессиональный (многоголосый, закадровый)
Режиссер: Хиронобу Сакагути, Мото Сакакибара
В ролях: Минг-На, Алек Болдуин, Винг Реймз, Стив Бушеми, Пери Гилпин, Дональд Сазерленд, Джеймс Вудс, Кит Дэвид, Джин Симмонс, Мэтт МакКенз
Описание: Земля, год 2065 Планета в страшной опасности. На родину человечества напали монстры-фантомы из космоса, которым невозможно противостоять. Полупрозрачные чудовища, более похожие на порождения галлюцинирующего мозга, уже истребили большую часть человечества и скоро их господство над Землей станет полным.
Доп. информация: Судьба мира в руках горстки смельчаков ученой Аки Росс, доктора Сиди и техноспецназа капитана Эдвардса, вступающих в последнее сражение с инопланетной


Качество: BDRip
Формат: MKV
Видео кодек: AVC (H264)
Аудио кодек: AC3
Видео: AVC (H264) 1920x1032 23.976fps Bit rate: 5 274 Kbps
Аудио: Dolby AC3 48000Hz 6ch Bit rate: 640 Kbps

media info

General
Unique ID : 206106397536708251098161476298912401169 (0x9B0EA5F552882A589DBAE59E3B798711)
Complete name : D:\Кино\Мультфильмы HD\Последняя Фантазия Духи внутри Нас.mkv
Format : Matroska
Format version : Version 2
File size : 4.38 GiB
Duration : 1h 45mn
Overall bit rate : 5 915 Kbps
Encoded date : UTC 2010-11-18 14:57:12
Writing application : mkvmerge v4.0.0 ('The Stars were mine') сборка от Jun 6 2010 16:18:42
Writing library : libebml v1.0.0 + libmatroska v1.0.0
Video
ID : 1
Format : AVC
Format/Info : Advanced Video Codec
Format profile : [email protected]
Format settings, CABAC : Yes
Format settings, ReFrames : 4 frames
Codec ID : V_MPEG4/ISO/AVC
Duration : 1h 45mn
Bit rate : 5 274 Kbps
Width : 1 920 pixels
Height : 1 032 pixels
Display aspect ratio : 1.85:1
Frame rate mode : Constant
Frame rate : 23.976 fps
Color space : YUV
Chroma subsampling : 4:2:0
Bit depth : 8 bits
Scan type : Progressive
Bits/(Pixel*Frame) : 0.111
Stream size : 3.82 GiB (87%)
Writing library : x264 core 107 r1772 c9dad9e
Encoding settings : cabac=1 / ref=4 / deblock=1:0:0 / analyse=0x3:0x133 / me=umh / subme=9 / psy=1 / psy_rd=1.00:0.00 / mixed_ref=1 / me_range=24 / chroma_me=1 / trellis=1 / 8x8dct=1 / cqm=0 / deadzone=21,11 / fast_pskip=0 / chroma_qp_offset=-2 / threads=12 / sliced_threads=0 / nr=0 / decimate=0 / interlaced=0 / constrained_intra=0 / bframes=4 / b_pyramid=2 / b_adapt=2 / b_bias=0 / direct=3 / weightb=1 / open_gop=0 / weightp=2 / keyint=250 / keyint_min=23 / scenecut=40 / intra_refresh=0 / rc_lookahead=60 / rc=2pass / mbtree=1 / bitrate=5274 / ratetol=1.0 / qcomp=0.60 / qpmin=10 / qpmax=51 / qpstep=4 / cplxblur=20.0 / qblur=0.5 / ip_ratio=1.40 / aq=1:1.00
Language : English
Default : Yes
Forced : No
Audio
ID : 2
Format : AC-3
Format/Info : Audio Coding 3
Mode extension : CM (complete main)
Format settings, Endianness : Big
Codec ID : A_AC3
Duration : 1h 45mn
Bit rate mode : Constant
Bit rate : 640 Kbps
Channel(s) : 6 channels
Channel positions : Front: L C R, Side: L R, LFE
Sampling rate : 48.0 KHz
Bit depth : 16 bits
Compression mode : Lossy
Stream size : 485 MiB (11%)
Language : Russian
Default : Yes
Forced : No

Скриншоты





просьба скачавших не уходить с раздачи mb


Последний раз редактировалось: tatarinmix (2013-05-31 14:11), всего редактировалось 1 раз

Создавать темы 31-Май-2013 01:35

[Профиль]  [ЛС] 

tatarinmix ®

Стаж: 4 года 6 месяцев

Сообщений: 35

Симпатии: 6

заранее предупреждаю до 09.06.2013 по тех причинам раздачи не будет

Создавать темы 31-Май-2013 15:18

[Профиль]  [ЛС] 

farirah

Стаж: 4 года 10 месяцев

Сообщений: 14

Было очень интересно... всем советую, автору темы спасибо!

Создавать темы 23-Июн-2013 15:48

[Профиль]  [ЛС] 

tatarinmix ®

Стаж: 4 года 6 месяцев

Сообщений: 35

Симпатии: 6

всегда рад помочь!! а так согласен мульт шикарный, и реалистичный))

Создавать темы 27-Июн-2013 19:12

[Профиль]  [ЛС] 

ildan

Стаж: 5 лет 4 месяца

Сообщений: 10

Спасибо автор. Даже слишком красивый мультик. Иногда кажется, что настоящего человека показывают.

Создавать темы 28-Июн-2013 10:15

[Профиль]  [ЛС] 

KsvSergey

Стаж: 4 года 6 месяцев

Сообщений: 14

Люди вернитесь на раздачу. очень хочется посмотреть мульт

Создавать темы 11-Июл-2013 07:55

[Профиль]  [ЛС] 

tatarinmix ®

Стаж: 4 года 6 месяцев

Сообщений: 35

Симпатии: 6

раздача ведется в основном днем!парой комп вырубает из за перепада электроэнергии так что без обид!

Создавать темы 14-Июл-2013 19:57

[Профиль]  [ЛС] 

black_angel_roman

Стаж: 4 года 4 месяца

Сообщений: 25

Симпатии: 2

автор или ктонибудь еще пожалуйста раздайте я уже неделю качаю комп и днем и ночью пашет

Создавать темы 22-Сен-2013 08:45

[Профиль]  [ЛС] 

vanfank

Стаж: 4 года 3 месяца

Сообщений: 141

Симпатии: 5

Похожо на Аниматрицу

Создавать темы 28-Окт-2013 18:07

[Профиль]  [ЛС] 
Показать сообщения:    
Ответить на тему

Текущее время: 17-Авг 04:51

Часовой пояс: UTC + 5



Вы не можете начинать темы
Вы не можете отвечать на сообщения
Вы не можете редактировать свои сообщения
Вы не можете удалять свои сообщения
Вы не можете голосовать в опросах
Вы не можете прикреплять файлы к сообщениям
Вы не можете скачивать файлы