LG Demo Global 3d movies

Ответить на тему
 

7abror7 ®

Стаж: 5 лет 6 месяцев

Сообщений: 30

Симпатии: 8

LG Demo Global 3d movies
Год выпуска: 2011

Жанр: 3д ролик

Продолжительность: 00:11:28

Перевод: Не требуется

Описание: Качественные демо ролики для просмотра на 3D телевизорах

Доп. информация: 3D Half Side By Side Горизонтальная анаморфная стереопара.

Качество: HDTV

Формат: LGE

Видео кодек: MPEG2

Аудио кодек: AC3

Видео: MPEG2 Video 1920x1080 23.976fps 30000kbps [Video - MPEG2, High Profile, High Level, 1920x1080, 23.976 fps, 30.00 mbit/s (0200,e0,00)]

Аудио: Dolby AC3 48000Hz stereo 192kbps [Audio - Dolby Digital, 48.0 kHz, 2 chn, 192.0 kbit/s (0201,bd,00)]

MediaInfo

Format : MPEG-TS
File size : 2.72 GiB
Duration : 11mn 28s
Overall bit rate : 33.9 Mbps
Video
ID : 512 (0x200)
Menu ID : 1 (0x1)
Format : MPEG Video
Format version : Version 2
Format profile : [email protected]
Format settings, BVOP : Yes
Format settings, Matrix : Default
Format settings, GOP : M=3, N=15
Codec ID : 2
Duration : 11mn 28s
Bit rate : 32.0 Mbps
Maximum bit rate : 30.0 Mbps
Width : 1 920 pixels
Height : 1 080 pixels
Display aspect ratio : 16:9
Frame rate : 23.976 fps
Color space : YUV
Chroma subsampling : 4:2:0
Bit depth : 8 bits
Scan type : Progressive
Compression mode : Lossy
Bits/(Pixel*Frame) : 0.644
Stream size : 2.57 GiB (94%)
Audio
ID : 513 (0x201)
Menu ID : 1 (0x1)
Format : AC-3
Format/Info : Audio Coding 3
Mode extension : CM (complete main)
Format settings, Endianness : Big
Codec ID : 129
Duration : 11mn 28s
Bit rate mode : Constant
Bit rate : 192 Kbps
Channel(s) : 2 channels
Channel positions : Front: L R
Sampling rate : 48.0 KHz
Bit depth : 16 bits
Compression mode : Lossy
Stream size : 15.8 MiB (1%)

Скриншоты

НЕ ЗАБЫВАЕМ ПРО СПАСИБО И "+"

Создавать темы 31-Май-2013 12:53

[Профиль]  [ЛС] 

gold_man

Стаж: 8 лет 1 месяц

Сообщений: 162

Симпатии: 18

чуваки скорости до качаю буду раздавать по полной

Создавать темы 10-Июн-2013 00:34

[Профиль]  [ЛС] 

gold_man

Стаж: 8 лет 1 месяц

Сообщений: 162

Симпатии: 18

а формат lge телик прочтёт?

Создавать темы 10-Июн-2013 20:29

[Профиль]  [ЛС] 

rsanjar

Стаж: 6 лет 8 месяцев

Сообщений: 32

Симпатии: 3

остановилось на 91.8%. Что это?
может дадите докачать уже...

Создавать темы 12-Июн-2013 02:19

[Профиль]  [ЛС] 

CROSSMINATOR

Стаж: 4 года 4 месяца

Сообщений: 2

остановилось на 91.8%. Что это?
может дадите докачать уже...
У меня такая же проблема

Создавать темы 14-Июн-2013 21:34

[Профиль]  [ЛС] 

gold_man

Стаж: 8 лет 1 месяц

Сообщений: 162

Симпатии: 18

так ведь сидера нету уже который день)

Создавать темы 15-Июн-2013 01:55

[Профиль]  [ЛС] 

gold_man

Стаж: 8 лет 1 месяц

Сообщений: 162

Симпатии: 18

показывает 5 с чемто минут вместо 11... толи у меня проблема толи видео битое.. у всех так?

Создавать темы 16-Июн-2013 01:28

[Профиль]  [ЛС] 

gold_man

Стаж: 8 лет 1 месяц

Сообщений: 162

Симпатии: 18

перехешировал всё нормально)

Создавать темы 16-Июн-2013 17:23

[Профиль]  [ЛС] 

Vlad7667

Стаж: 5 лет

Сообщений: 196

Симпатии: 187

скорости пожалуйста

Создавать темы 09-Июл-2013 23:58

[Профиль]  [ЛС] 

madinakma

Стаж: 5 лет 8 месяцев

Сообщений: 17

отличный ролик, мне очень понравилось, рекомендую!

Создавать темы 04-Авг-2013 13:39

[Профиль]  [ЛС] 

Str1keR

Стаж: 7 лет 1 месяц

Сообщений: 75

Симпатии: 2

Мужики а ТВ LG будет читать этот формат lge? или прога какая-то нужна? ТВ с 3Д.. LG cinema 3d

Создавать темы 21-Сен-2013 14:30

[Профиль]  [ЛС] 

abonchik

Стаж: 4 года 3 месяца

Сообщений: 10

на самсунге не прочелся не видит

Создавать темы 17-Окт-2013 19:49

[Профиль]  [ЛС] 

Windtrader

Стаж: 6 лет 6 месяцев

Сообщений: 13

Симпатии: 2

Дайте газу ....не хачается нифига ..

Создавать темы 31-Окт-2013 20:29

[Профиль]  [ЛС] 

lorens9

Стаж: 4 года 9 месяцев

Сообщений: 9

Симпатии: 1

dayte skorost plz

Создавать темы 21-Июн-2014 19:12

[Профиль]  [ЛС] 
Показать сообщения:    
Ответить на тему

Текущее время: 24-Окт 14:35

Часовой пояс: UTC + 5



Вы не можете начинать темы
Вы не можете отвечать на сообщения
Вы не можете редактировать свои сообщения
Вы не можете удалять свои сообщения
Вы не можете голосовать в опросах
Вы не можете прикреплять файлы к сообщениям
Вы не можете скачивать файлы