100 градусов ниже нуля / 100 Degrees Below Zero (Р.Д. Браунштейн) [2013 г., фантастика, боевик, WEBDLRip]

Страницы :  1, 2, 3, 4, 5, 6, 7, 8  След.

Ответить на тему
 

igor1968 ®

Стаж: 5 лет 9 месяцев

Сообщений: 366

Симпатии: 197

100 градусов ниже нуля / 100 Degrees Below Zero
Год выпуска: 2013
Страна:
Жанр: Фантастика, боевик
Продолжительность: 01:28:21.760
Перевод: Профессиональный (одноголосый)
Режиссер: Р.Д. Браунштейн
В ролях: Марк МакКевитт Эвинс,Джефф Фэйи,Юдит Фекете,Андрэй Джонсон,Лайош Калмар II,Иван Камарас,Андраш Корчмарос ,Сара Малакул Лэйн,Тамаш Лендьель ,Джон Рис-Дэвис ...
На Земле начинается глобальное похолодание. Человечество на грани гибели. Группа учёных пытается предотвратить новый ледниковый период…-Премьера 13 апреля 2013- -Качество:WEBDLRip
Формат: AVI
Видео кодек: XviD
Аудио кодек: AC3
Видео: 720x400 (1.80:1), 23.976 fps, XviD build 65 ~1829 kbps avg, 0.27 bit/pixel
Аудио: 48 kHz, AC3 Dolby Digital, 3/2 (L,C,R,l,r) + LFE ch, ~384.00 kbps avg-

MediaInfo

General
Complete name :100.Degrees.Below.Zero.2013.L1.WEBDLRip.1400MB.avi
Format : AVI
Format/Info : Audio Video Interleave
File size : 1.37 GiB
Duration : 1h 28mn
Overall bit rate : 2 222 Kbps
Writing application : VirtualDubMod 1.5.10.2 (build 2540/release)
Writing library : VirtualDubMod build 2540/release
Video
ID : 0
Format : MPEG-4 Visual
Format profile : Advanced [email protected]
Format settings, BVOP : 2
Format settings, QPel : No
Format settings, GMC : No warppoints
Format settings, Matrix : Default (MPEG)
Codec ID : XVID
Codec ID/Hint : XviD
Duration : 1h 28mn
Bit rate : 1 829 Kbps
Width : 720 pixels
Height : 400 pixels
Display aspect ratio : 16:9
Frame rate : 23.976 fps
Color space : YUV
Chroma subsampling : 4:2:0
Bit depth : 8 bits
Scan type : Progressive
Compression mode : Lossy
Bits/(Pixel*Frame) : 0.265
Stream size : 1.13 GiB (82%)
Writing library : XviD 65
Audio
ID : 1
Format : AC-3
Format/Info : Audio Coding 3
Mode extension : CM (complete main)
Format settings, Endianness : Big
Codec ID : 2000
Duration : 1h 28mn
Bit rate mode : Constant
Bit rate : 384 Kbps
Channel(s) : 6 channels
Channel positions : Front: L C R, Side: L R, LFE
Sampling rate : 48.0 KHz
Bit depth : 16 bits
Compression mode : Lossy
Stream size : 243 MiB (17%)
Alignment : Split accross interleaves
Interleave, duration : 42 ms (1.00 video frame)
Interleave, preload duration : 500 ms
-

Скриншоты






- -


Последний раз редактировалось: igor1968 (2013-09-28 04:55), всего редактировалось 4 раз(а)

Создавать темы 31-Май-2013 13:17

[Профиль]  [ЛС] 

ibragimof

Стаж: 6 лет 8 месяцев

Сообщений: 253

Симпатии: 48

рейтинг убилЪ

Создавать темы 31-Май-2013 13:27

[Профиль]  [ЛС] 

Salimbek_09

Стаж: 5 лет 8 месяцев

Сообщений: 29

Спасибо автору

Создавать темы 31-Май-2013 14:24

[Профиль]  [ЛС] 

NiggaДяй

Стаж: 4 года 9 месяцев

Сообщений: 14

Симпатии: 1

рейтинг убилЪ
)))))) ужас какой рейтинг

Создавать темы 31-Май-2013 14:39

[Профиль]  [ЛС] 

madik

Стаж: 5 лет 3 месяца

Сообщений: 89

Симпатии: 5

Кто скачал отпишитесь

Создавать темы 31-Май-2013 15:26

[Профиль]  [ЛС] 

DreamWorks

Стаж: 4 года 10 месяцев

Сообщений: 12

Симпатии: 1

Кто скачал отпишитесь
Размер: 1.37 GB | Зарегистрирован: 2 часа 40 минут | Скачан: 0 раз
так что все ещё ta

Создавать темы 31-Май-2013 15:59

[Профиль]  [ЛС] 

igor1968 ®

Стаж: 5 лет 9 месяцев

Сообщений: 366

Симпатии: 197

Скриншоты

Создавать темы 31-Май-2013 16:08

[Профиль]  [ЛС] 

soxa

Стаж: 5 лет 2 месяца

Сообщений: 155

Симпатии: 21

что за рейтинг bz

Создавать темы 31-Май-2013 18:21

[Профиль]  [ЛС] 

artur78-h

Стаж: 5 лет 8 месяцев

Сообщений: 114

взря автор рейтинг показал.....Теперь все шарахаються.....

Создавать темы 31-Май-2013 19:03

[Профиль]  [ЛС] 

artur78-h

Стаж: 5 лет 8 месяцев

Сообщений: 114

Я всеже рискну и скачаю...спасибо
люблю я такие темы

Создавать темы 31-Май-2013 19:04

[Профиль]  [ЛС] 

igor1968 ®

Стаж: 5 лет 9 месяцев

Сообщений: 366

Симпатии: 197

взря автор рейтинг показал.....Теперь все шарахаються.....
Зачем обманывать Кого не устраивает пусть не качает!

Создавать темы 31-Май-2013 22:21

[Профиль]  [ЛС] 

bokal_solutions

Стаж: 6 лет 10 месяцев

Сообщений: 69

Симпатии: 5

а нашим пофиг, всё качают))

Создавать темы 01-Июн-2013 09:04

[Профиль]  [ЛС] 

Kokin

Стаж: 7 лет 5 месяцев

Сообщений: 8

и все равно все качают
на рейтинг не смотрите всё равно

Создавать темы 01-Июн-2013 11:04

[Профиль]  [ЛС] 

madik

Стаж: 5 лет 3 месяца

Сообщений: 89

Симпатии: 5

27 раз скачено, напишитеже

Создавать темы 01-Июн-2013 13:24

[Профиль]  [ЛС] 

Shakir

Стаж: 7 лет 4 месяца

Сообщений: 16

Симпатии: 4

Выжившие при скачивания отпишитесь как фильм

Создавать темы 01-Июн-2013 20:21

[Профиль]  [ЛС] 
Показать сообщения:    
Ответить на тему

Текущее время: 15-Дек 07:23

Часовой пояс: UTC + 5



Вы не можете начинать темы
Вы не можете отвечать на сообщения
Вы не можете редактировать свои сообщения
Вы не можете удалять свои сообщения
Вы не можете голосовать в опросах
Вы не можете прикреплять файлы к сообщениям
Вы не можете скачивать файлы