АПЛ 2012/2013 Лучшие голы сезона [2013 г., Football, TVRip]

Ответить на тему
 

7abror7 ®

Стаж: 5 лет 7 месяцев

Сообщений: 30

Симпатии: 8

АПЛ 2012/2013 Лучшие голы сезона
Год выпуска: 2013
Вид спорта: Football
Продолжительность: 00:51:24
Комментарий: Профессиональный (одноголосый)
Описание: Все голы сезона Английский Премиер Лиги за 2012/2013
Качество: TVRip
Формат: MPEG
Видео кодек: H264
Аудио кодек: AC3
Видео: MPEG4 Video (H264) 640x360 (79:45) 30fps [VideoHandler - MPEG4 Video (H264)]
Аудио: AAC 44100Hz stereo 95kbps [SoundHandler - MPEG-4 Audio]

MediaInfo

Format : MPEG-4
Format profile : Base Media
Codec ID : isom
File size : 259 MiB
Duration : 51mn 23s
Overall bit rate : 705 Kbps
Writing application : Lavf54.22.100
Video
ID : 1
Format : AVC
Format/Info : Advanced Video Codec
Format profile : [email protected]
Format settings, CABAC : Yes
Format settings, ReFrames : 5 frames
Codec ID : avc1
Codec ID/Info : Advanced Video Coding
Duration : 51mn 23s
Bit rate : 600 Kbps
Width : 640 pixels
Height : 360 pixels
Display aspect ratio : 16:9
Frame rate mode : Constant
Frame rate : 30.000 fps
Color space : YUV
Chroma subsampling : 4:2:0
Bit depth : 8 bits
Scan type : Progressive
Bits/(Pixel*Frame) : 0.087
Stream size : 221 MiB (85%)
Writing library : x264 core 125 r2 d9d2288
Encoding settings : cabac=1 / ref=5 / deblock=1:0:0 / analyse=0x3:0x113 / me=umh / subme=8 / psy=1 / psy_rd=1.00:0.00 / mixed_ref=1 / me_range=16 / chroma_me=1 / trellis=1 / 8x8dct=1 / cqm=0 / deadzone=21,11 / fast_pskip=1 / chroma_qp_offset=-2 / threads=2 / lookahead_threads=1 / sliced_threads=0 / nr=0 / decimate=1 / interlaced=0 / bluray_compat=0 / constrained_intra=0 / bframes=3 / b_pyramid=2 / b_adapt=2 / b_bias=0 / direct=3 / weightb=1 / open_gop=0 / weightp=2 / keyint=30 / keyint_min=3 / scenecut=40 / intra_refresh=0 / rc_lookahead=30 / rc=abr / mbtree=1 / bitrate=600 / ratetol=1.0 / qcomp=0.60 / qpmin=0 / qpmax=69 / qpstep=4 / ip_ratio=1.40 / aq=1:1.00
Audio
ID : 2
Format : AAC
Format/Info : Advanced Audio Codec
Format profile : LC
Codec ID : 40
Duration : 51mn 23s
Duration_LastFrame : -1ms
Bit rate mode : Constant
Bit rate : 96.0 Kbps
Channel(s) : 2 channels
Channel positions : Front: L R
Sampling rate : 44.1 KHz
Compression mode : Lossy
Delay relative to video : 67ms
Stream size : 35.3 MiB (14%)

Скриншоты

НЕ ЗАБЫВАЕМ ПРО СПАСИБО !!!


Последний раз редактировалось: 7abror7 (2013-06-02 18:19), всего редактировалось 1 раз

Создавать темы 31-Май-2013 17:47

[Профиль]  [ЛС] 

Abdullaev Farkhod

Стаж: 5 лет 7 месяцев

Сообщений: 3

А где лучшие голы месяца? А за это огромное Спасибо!


Последний раз редактировалось: Abdullaev Farkhod (2013-07-01 17:01), всего редактировалось 1 раз

Создавать темы 01-Июл-2013 15:37

[Профиль]  [ЛС] 

Grock

Стаж: 6 лет 10 месяцев

Сообщений: 637

Симпатии: 113

А где лучшие голы месяца? А за это огромное Спасибо!
Не пишите транслитом, исправил сообщение

Создавать темы 01-Июл-2013 17:02

[Профиль]  [ЛС] 
Показать сообщения:    
Ответить на тему

Текущее время: 18-Дек 13:47

Часовой пояс: UTC + 5



Вы не можете начинать темы
Вы не можете отвечать на сообщения
Вы не можете редактировать свои сообщения
Вы не можете удалять свои сообщения
Вы не можете голосовать в опросах
Вы не можете прикреплять файлы к сообщениям
Вы не можете скачивать файлы