12 раундов: Перезагрузка / 12 Rounds: Reloaded (Роэль Рейн / Roel Reine) [2013, США, боевик, HDRip] VO

Ответить на тему
 

Suxrob89 ®

Стаж: 7 лет 4 месяца

Сообщений: 933

Симпатии: 564

12 раундов: Перезагрузка / 12 Rounds: Reloaded- -Страна: США
Жанр: боевик
Год выпуска: 2013
Продолжительность: 01:34:32-Перевод: Одноголосый закадровый den904, перевод [Janetta]
Cубтитры: нет
Режиссер: Роэль Рейн / Roel Reiné-В ролях: Брайан Маркинсон, Рэнди Ортон, Синди Басби, Шон Роджерсон, Патрик Гилмор, Джесси Хатч, Колин Лоуренс, Челси Рейст, Фрейзер Айтчесон, Том Стивенс-Описание: В фильме "12 раундов 2: Перезагрузка / 12 Rounds: Reloaded" Вы увидите продолжение первой части фильма "12 раундов / 12 Rounds (2009)", в котором новоорлеанский полицейский Дэнни Фишер противостоял Майлсу Джексону - наиболее опасному преступнику в мире.-Качество видео: HDRip
Формат видео: AVI
Видео: XviD, 1 538 Кбит/с, 720x400, 23.976 fps
Аудио: 48.0 KHz, AC3, 6 ch, 448 Кбит/с

MediaInfo

D:\12.Raundov.perezagruzka.2013.L1.HDRip.1400MB.avi
General
Complete name : D:\12.Raundov.perezagruzka.2013.L1.HDRip.1400MB.avi
Format : AVI
Format/Info : Audio Video Interleave
File size : 1.37 GiB
Duration : 1h 34mn
Overall bit rate : 2 077 Kbps
Writing application : VirtualDubMod 1.5.10.2 (build 2540/release)
Writing library : VirtualDubMod build 2540/release
Video #0
ID : 0
Format : MPEG-4 Visual
Format profile : Advanced [email protected]
Format settings, BVOP : 2
Format settings, QPel : No
Format settings, GMC : No warppoints
Format settings, Matrix : Default (H.263)
Codec ID : XVID
Codec ID/Hint : XviD
Duration : 1h 34mn
Bit rate : 1 538 Kbps
Width : 720 pixels
Height : 400 pixels
Display aspect ratio : 16:9
Frame rate : 23.976 fps
Color space : YUV
Chroma subsampling : 4:2:0
Bit depth : 8 bits
Scan type : Progressive
Compression mode : Lossy
Bits/(Pixel*Frame) : 0.223
Stream size : 1.01 GiB (74%)
Writing library : XviD 1.2.1 (UTC 2008-12-04)
Audio #1
ID : 1
Format : AC-3
Format/Info : Audio Coding 3
Mode extension : CM (complete main)
Format settings, Endianness : Big
Codec ID : 2000
Duration : 1h 34mn
Bit rate mode : Constant
Bit rate : 448 Kbps
Channel(s) : 6 channels
Channel positions : Front: L C R, Side: L R, LFE
Sampling rate : 48.0 KHz
Bit depth : 16 bits
Compression mode : Lossy
Stream size : 302 MiB (22%)
Alignment : Split accross interleaves

Скриншот с названием фильма

Скриншоты



Последний раз редактировалось: Suxrob89 (2013-06-02 08:06), всего редактировалось 1 раз

Создавать темы 01-Июн-2013 03:31

[Профиль]  [ЛС] 

Vudi18

Стаж: 5 лет 1 месяц

Сообщений: 117

Симпатии: 3

RKO

Создавать темы 01-Июн-2013 11:33

[Профиль]  [ЛС] 

Davrick

Стаж: 4 года 9 месяцев

Сообщений: 37

ну как фильм?

Создавать темы 01-Июн-2013 13:55

[Профиль]  [ЛС] 

rasulov_azim

Стаж: 5 лет 10 месяцев

Сообщений: 10

Симпатии: 3

Randy Orton ow yeah

Создавать темы 02-Июн-2013 11:32

[Профиль]  [ЛС] 

LiX

Стаж: 6 лет 6 месяцев

Сообщений: 254

Симпатии: 6

Первый фильм с Джоном Синой очень понравился! Надеюсь эта будет не хуже)
P.S. кстати могу дать ссылку на онлайн просмотр Первого Фильма в Тас-Икс!

Создавать темы 03-Июн-2013 14:57

[Профиль]  [ЛС] 

n0dir

Стаж: 5 лет 2 месяца

Сообщений: 5

Первый фильм с Джоном Синой очень понравился! Надеюсь эта будет не хуже)
P.S. кстати могу дать ссылку на онлайн просмотр Первого Фильма в Тас-Икс!
Закин линк пожайлуста

Создавать темы 07-Июн-2013 19:00

[Профиль]  [ЛС] 

sirius black

Стаж: 4 года 9 месяцев

Сообщений: 34

LiX, мне тоже закинь в личку сылку!зарание спасибо!)

Создавать темы 13-Июн-2013 18:20

[Профиль]  [ЛС] 

DOCforJAMIK

Стаж: 4 года 6 месяцев

Сообщений: 33

Симпатии: 2

Класный филм +5

_________________
Подпись отключена за нарушение правил форума

Создавать темы 13-Июн-2013 18:45

[Профиль]  [ЛС] 

edgemza

Стаж: 6 лет 6 месяцев

Сообщений: 191

Симпатии: 7

Очень жаль, что так и не появилось на трекере варианта с нормальной дублированной озвучкой... :(

Создавать темы 04-Май-2014 23:36

[Профиль]  [ЛС] 
Показать сообщения:    
Ответить на тему

Текущее время: 11-Дек 16:29

Часовой пояс: UTC + 5



Вы не можете начинать темы
Вы не можете отвечать на сообщения
Вы не можете редактировать свои сообщения
Вы не можете удалять свои сообщения
Вы не можете голосовать в опросах
Вы не можете прикреплять файлы к сообщениям
Вы не можете скачивать файлы