Ип Ман 2 / Yip Man 2: Chung si chuen kei (Уилсон Ип) [2010 г., боевик, биография, история, BDRip 1080р]

Ответить на тему
 

nizom_19 ®

Стаж: 4 года 6 месяцев

Сообщений: 60

Симпатии: 17

Ип Ман 2 / Yip Man 2: Chung si chuen kei
Год выпуска: 2010
Страна: Гонконг
Жанр: боевик, биография, история
Продолжительность: 01:47:49
Перевод: Профессиональный (многоголосый, закадровый)
Режиссер: Уилсон Ип
В ролях: Донни Ен, Линн Хунг, Саймон Ям, Саммо Хунг Кам-Бо, Хуан Сяомин, Сю-Вонг Фан, Кент Чэн, Даррен Шахлави , Эмбер Чиа
Описание: Вторая Мировая война закончилась, но Китай все еще слаб и беден. Ип Ман открывает свою школу боевых искусств, однако завоевать свое место под солнцем оказывается непросто — чтобы избежать проблем, Ип Ману нужно сначала завоевать уважение представителей других кунгфу-школ, а председательствующему в их ассоциации Хунгу Ип Ман не понравился с первого взгляда. А тем временем в Гонконге усиливается присутствие британцев, и некоторые из них плевать хотели на китайские традиции и обычаи..
Качество: BDRip
Формат: MKV
Видео кодек: AVC
Аудио кодек: DTS, АС3
Видео: 1920x816, 13.0 Mbps, 23.976 fps
Аудио 1: 1510 Kbps, 6 channels, 48.0 KHz - Китайский
Аудио 2: 384 Kbps, 6 channels, 48.0 KHz - Русский
I:\Êèíî\Èï Ìàí 2\Èï Ìàí 2 3D.mkv
General
Unique ID : 178150770576763058981348651304324577276 (0x8606972249C0C43BB0B502A1D63237FC)
Complete name : I:\Êèíî\Èï Ìàí 2\Èï Ìàí 2 3D.mkv
Format : Matroska
Format version : Version 1
File size : 11.2 GiB
Duration : 1h 47mn
Overall bit rate : 14.9 Mbps
Encoded date : UTC 2010-06-14 23:14:45
Writing application : mkvmerge v2.4.2 ('Oh My God') built on Jan 18 2009 17:30:28
Writing library : libebml v0.7.7 + libmatroska v0.8.1
Video #1
ID : 1
Format : AVC
Format/Info : Advanced Video Codec
Format profile : [email protected]
Format settings, CABAC : Yes
Format settings, ReFrames : 4 frames
Codec ID : V_MPEG4/ISO/AVC
Duration : 1h 47mn
Bit rate : 13.0 Mbps
Width : 1 920 pixels
Height : 816 pixels
Display aspect ratio : 2.35:1
Frame rate mode : Constant
Frame rate : 23.976 fps
Color space : YUV
Chroma subsampling : 4:2:0
Bit depth : 8 bits
Scan type : Progressive
Bits/(Pixel*Frame) : 0.346
Stream size : 9.57 GiB (85%)
Title : WiKi @ TTG
Writing library : x264 core 80 r1376M 3feaec2
Encoding settings : cabac=1 / ref=4 / deblock=1:-3:-3 / analyse=0x3:0x113 / me=umh / subme=9 / psy=1 / psy_rd=1.1:0.1 / mixed_ref=1 / me_range=32 / chroma_me=1 / trellis=2 / 8x8dct=1 / cqm=0 / deadzone=21,11 / fast_pskip=0 / chroma_qp_offset=-5 / threads=6 / sliced_threads=0 / nr=0 / decimate=0 / mbaff=0 / constrained_intra=0 / bframes=6 / b_pyramid=2 / b_adapt=2 / b_bias=0 / direct=3 / wpredb=1 / wpredp=2 / keyint=250 / keyint_min=25 / scenecut=40 / rc_lookahead=48 / rc=2pass / mbtree=1 / bitrate=13011 / ratetol=1.0 / qcomp=0.60 / qpmin=10 / qpmax=51 / qpstep=4 / cplxblur=20.0 / qblur=0.5 / ip_ratio=1.40 / aq=1:0.80
Language : English
Default : Yes
Forced : No
Audio #2
ID : 2
Format : DTS
Format/Info : Digital Theater Systems
Mode : 16
Format settings, Endianness : Big
Codec ID : A_DTS
Duration : 1h 47mn
Bit rate mode : Constant
Bit rate : 1 510 Kbps
Channel(s) : 6 channels
Channel positions : Front: L C R, Side: L R, LFE
Sampling rate : 48.0 KHz
Bit depth : 24 bits
Compression mode : Lossy
Stream size : 1.14 GiB (10%)
Title : Mandarin DTS 5.1 @ 1510Kbps
Language : Chinese
Default : Yes
Forced : No
Audio #3
ID : 3
Format : AC-3
Format/Info : Audio Coding 3
Mode extension : CM (complete main)
Format settings, Endianness : Big
Codec ID : A_AC3
Duration : 1h 47mn
Bit rate mode : Constant
Bit rate : 384 Kbps
Channel(s) : 6 channels
Channel positions : Front: L C R, Side: L R, LFE
Sampling rate : 48.0 KHz
Bit depth : 16 bits
Compression mode : Lossy
Stream size : 296 MiB (3%)
Title : Russian
Default : No
Forced : No
Text #4
ID : 4
Format : UTF-8
Codec ID : S_TEXT/UTF8
Codec ID/Info : UTF-8 Plain Text
Title : English
Default : Yes
Forced : No

Скриншоты












Последний раз редактировалось: nizom_19 (2013-06-02 08:44), всего редактировалось 3 раз(а)

Создавать темы 01-Июн-2013 09:30

[Профиль]  [ЛС] 

Server

Стаж: 7 лет 2 месяца

Сообщений: 67

Симпатии: 2

Классно с играл этот актёр. А вот в Ип Ман 3 не важный актёр с игра!!!

Создавать темы 01-Июн-2013 12:00

[Профиль]  [ЛС] 

nizom_19 ®

Стаж: 4 года 6 месяцев

Сообщений: 60

Симпатии: 17

да и мне понравилось его фильмы

Создавать темы 01-Июн-2013 17:44

[Профиль]  [ЛС] 

Топик был перенесен из форума Фильмы за 2010 в форум Зарубежное кино

ziyod

Создавать темы 02-Июн-2013 08:45

 
Показать сообщения:    
Ответить на тему

Текущее время: 24-Ноя 12:42

Часовой пояс: UTC + 5



Вы не можете начинать темы
Вы не можете отвечать на сообщения
Вы не можете редактировать свои сообщения
Вы не можете удалять свои сообщения
Вы не можете голосовать в опросах
Вы не можете прикреплять файлы к сообщениям
Вы не можете скачивать файлы