Джек – покоритель великанов / Jack The Giant Slayer (Брайан Сингер / Bryan Singer) [2013, США, фэнтези, приключения, HDRip] Dub (c CAMRip) + Original (eng)

Тема закрыта
 

Suxrob89 ®

Стаж: 7 лет 1 месяц

Сообщений: 933

Симпатии: 564

-Джек – покоритель великанов / Jack The Giant Slayer- Год выхода: 2013
Жанр: фэнтези, приключения
Выпущено: США
Продолжительность: 01:54:20
Перевод: Профессиональный (полное дублирование) (c CAMRip)
Оригинальная дорожка: Английская
Субтитры: Нет-Режиссер:
Брайан Сингер / Bryan Singer-В ролях:
Николас Холт, Элинор Томлинсон, Юэн МакГрегор, Стэнли Туччи, Эдди Марсан, Юэн Бремнер, Иэн МакШейн, Кристофер Фэйрбэнк, Саймон Лоу, Мингус Джонстон-Описание:
История начинается с похищения принцессы, что грозит нарушить хрупкий мир между людьми и великанами. Юный фермер возглавляет вылазку в царство гигантов в надежде спасти девушку.- -Качество: HDRip [рип с BDRip 720p]
Формат: AVI
Видео кодек: XviD
Аудио кодек: AC3
Видео: 720x304 (2.37:1), 23.976 fps, XviD MPEG-4 ~1994 kbps avg, 0.38 bit/pixel
Аудио 1: 44.100 kHz, AC3 Dolby Digital, 2/0 (L,R) ch, ~128.00 kbps avg |DUB, CAMRip|
Аудио 2: 48 kHz, AC3 Dolby Digital, 3/2 (L,C,R,l,r) + LFE ch, ~448.00 kbps avg |ENG|-

Скриншот с названием фильма

Скриншоты

MediaInfo

Общее
Полное имя : L:\Djek.pokoritel.velikanov.2013.Dt.HDRip.2100MB.avi
Формат : AVI
Формат/Информация : Audio Video Interleave
Профиль формата : OpenDML
Размер файла : 2,06 Гбайт
Продолжительность : 1 ч. 54 м.
Общий поток : 2577 Кбит/сек
Программа кодирования : VirtualDubMod 1.5.10.2 (build 2540/release)
Библиотека кодирования : VirtualDubMod build 2540/release
Видео
Идентификатор : 0
Формат : MPEG-4 Visual
Профиль формата : Advanced [email protected]
Параметр BVOP формата : 2
Параметр QPel формата : Нет
Параметр GMC формата : Без точки перехода
Параметр матрицы формата : Default (MPEG)
Режим смешивания : Сжатый битовый поток
Идентификатор кодека : XVID
Идентификатор кодека/Подсказка : XviD
Продолжительность : 1 ч. 54 м.
Битрейт : 1983 Кбит/сек
Ширина : 720 пикселей
Высота : 304 пикселя
Соотношение сторон : 2,35:1
Частота кадров : 23,976 кадра/сек
Цветовое пространство : YUV
Субдискретизация насыщенности : 4:2:0
Битовая глубина : 8 бит
Тип развёртки : Прогрессивная
Метод сжатия : С потерями
Бит/(Пиксели*Кадры) : 0.378
Размер потока : 1,58 Гбайт (77%)
Библиотека кодирования : XviD 1.2.1 (UTC 2008-12-04)
Аудио #1
Идентификатор : 1
Формат : AC-3
Формат/Информация : Audio Coding 3
Расширение режима : CM (complete main)
Параметр Endianness формата : Big
Идентификатор кодека : 2000
Продолжительность : 1 ч. 54 м.
Вид битрейта : Постоянный
Битрейт : 128 Кбит/сек
Каналы : 2 канала
Расположение каналов : Front: L R
Частота : 44,1 КГц
Битовая глубина : 16 бит
Метод сжатия : С потерями
Размер потока : 105 Мбайт (5%)
Выравнивание : Разделение по промежуткам
Продолжительность промежутка : 42 мс. (1,00 видеокадр)
Время предзагрузки промежутка : 500 мс.
Аудио #2
Идентификатор : 2
Формат : AC-3
Формат/Информация : Audio Coding 3
Расширение режима : CM (complete main)
Параметр Endianness формата : Big
Идентификатор кодека : 2000
Продолжительность : 1 ч. 54 м.
Вид битрейта : Постоянный
Битрейт : 448 Кбит/сек
Каналы : 6 каналов
Расположение каналов : Front: L C R, Side: L R, LFE
Частота : 48,0 КГц
Битовая глубина : 16 бит
Метод сжатия : С потерями
Размер потока : 366 Мбайт (17%)
Выравнивание : Разделение по промежуткам
Продолжительность промежутка : 42 мс. (1,00 видеокадр)
Время предзагрузки промежутка : 500 мс.

Создавать темы 01-Июн-2013 12:07

[Профиль]  [ЛС] 

Timikkk

Стаж: 5 лет 7 месяцев

Сообщений: 18

Люди не жадничайте включите исходящую скорость.

Создавать темы 01-Июн-2013 13:45

[Профиль]  [ЛС] 

Davrick

Стаж: 4 года 6 месяцев

Сообщений: 37

Спасибо за фильм! Не знаете когда будет чистый звук, или лицензия????

Создавать темы 01-Июн-2013 13:55

[Профиль]  [ЛС] 

BOSYA

Стаж: 5 лет 5 месяцев

Сообщений: 75

Симпатии: 1

Автор как звук слышно че нить?

Создавать темы 01-Июн-2013 14:23

[Профиль]  [ЛС] 

123456789

Стаж: 5 лет 6 месяцев

Сообщений: 5

Ужасная скорость...

Создавать темы 01-Июн-2013 14:27

[Профиль]  [ЛС] 

Senat

Стаж: 6 лет 7 месяцев

Сообщений: 251

фильм Супер

Создавать темы 01-Июн-2013 14:46

[Профиль]  [ЛС] 

RichmanVIP

Стаж: 4 года 6 месяцев

Сообщений: 97

Симпатии: 4

Ужасная скорость...
Отдача хорошая, видать у тя провайдер гонит

ЖМИ СЮДА!!!

Создавать темы 01-Июн-2013 15:28

[Профиль]  [ЛС] 

Constanta

Стаж: 4 года 8 месяцев

Сообщений: 12

Ужасная скорость...
Отдача хорошая, видать у тя провайдер гонит

ЖМИ СЮДА!!!

там же где список пиров явно видно, что вся скорость уходит на одного пира( и поэтому он прав

Создавать темы 01-Июн-2013 18:56

[Профиль]  [ЛС] 

M-WIZARD

Стаж: 4 года 8 месяцев

Сообщений: 20

Спасибо!.. Но блин русская звуковая дорожка с экранки... конечно портит впечатление!

Создавать темы 04-Июн-2013 20:29

[Профиль]  [ЛС] 

oljas

Стаж: 5 лет 4 месяца

Сообщений: 50

M-WIZARD, [url]http://tas-ix.net/viewtopic.php?t=71894&spmode=full#seeders[url]

Создавать темы 04-Июн-2013 20:37

[Профиль]  [ЛС] 

Иви

Стаж: 5 лет 8 месяцев

Сообщений: 688

Симпатии: 65

Джек – покоритель великанов / Jack the Giant Slayer (Брайан Сингер / Bryan Singer) [2013 г., фэнтези, приключения, HDRip]
Джек – покоритель великанов / Jack the Giant Slayer (Брайан Сингер / Bryan Singer) [2013, США, Фэнтези, приключения, BDRip] Dub[Лицензия]
Джек – покоритель великанов / Jack the Giant Slayer (Брайан Сингер / Bryan Singer) [2013 г., фэнтези, приключения, BDRip][лицензия]

Создавать темы 19-Июн-2013 17:24

[Профиль]  [ЛС] 
Показать сообщения:    
Тема закрыта

Текущее время: 25-Сен 23:43

Часовой пояс: UTC + 5



Вы не можете начинать темы
Вы не можете отвечать на сообщения
Вы не можете редактировать свои сообщения
Вы не можете удалять свои сообщения
Вы не можете голосовать в опросах
Вы не можете прикреплять файлы к сообщениям
Вы не можете скачивать файлы